Browse Collections Artists Sources   Search Dates

Add Show    List Management    Help


Phish 08/01/17
Madison Square Garden, New York, NY
Comments Add Comment    Source Collectors    Add to Collection    Add to Want List    History
Source # 139508 Other Sources
Entered by Matt Vernon
Checksums ffp , flac-md5
Disc Counts 0 / 0
Media Size Compressed: 799.21 MB (838037504 bytes)
Date Circulated
Date Added
10/02/2017
10/02/2017
Source Summary flac16 44.1khz Schoeps CMC6/MK4 > Sound Devices 744T (24bit/96k) > Samplitude Pro X3 Suite > FLAC/24. Section 2 Row 1 Seat 20 with the mic stand 9 feet high. Recorded and Mastered By Charlie Miller 
Source Information - Download Text | Download Zip
Phish - August 1, 2017
Madison Square Garden - New York, NY
Baker's Dozen Show 9 - Maple

Recording Info:
Schoeps CMC6/MK4 > Sound Devices 744T (24bit/96k) > Samplitude Pro X3 Suite > FLAC/24
(1 DVD FLAC)

Recorded and Mastered By Charlie Miller
[email protected]
August 14, 2017

Notes:
-- Section 2 Row 1 Seat 20 with the mic stand 9 feet high
-- Chris Kuroda allowed me to set up next to him in the lighting booth
-- This fileset is 16 Bit @ 44.1

Set 1:
01 - Tuning
02 - O Canada
03 - Crowd Control
04 - Sugar Shack
05 - When The Circus Comes To Town
06 - Daniel Saw The Stone
07 - Army Of One
08 - The Wedge
09 - Guelah Papyrus
10 - Maple Leaf Rag
11 - Guelah Papyrus
12 - McGrupp And The Watchful Homemasters
13 - Limb By Limb
14 - Walk Away

Set 2:
15 - Tuning
16 - Golden Age
17 - Leaves
18 - Swept Away
19 - Steep
20 - 46 Days
21 - Piper
22 - Possum

Encore:
23 - Encore Break
24 - Rock n Roll Suicide


SHNTOOL OUTPUT:
    length     expanded size    cdr  WAVE problems  fmt   ratio  filename
     0:40.26        7117196 B   ---   --   ---xx   flac  0.4621  01 Tuning.flac
     2:17.03       24173900 B   ---   --   ---xx   flac  0.4913  02 O Canada.flac
     5:33.40       58835324 B   ---   --   ---xx   flac  0.5393  03 Crowd Control.flac
     6:41.25       70795244 B   ---   --   ---xx   flac  0.5232  04 Sugar Shack.flac
     5:12.15       55072124 B   ---   --   ---xx   flac  0.4870  05 When The Circus Comes To Town.flac
     3:44.27       39577148 B   ---   --   ---xx   flac  0.5274  06 Daniel Saw The Stone.flac
     4:51.70       51497084 B   ---   --   ---xx   flac  0.5206  07 Army Of One.flac
     7:28.20       79074284 B   ---   --   ---xx   flac  0.5414  08 The Wedge.flac
     4:22.44       46320332 B   ---   --   ---xx   flac  0.5170  09 Guelah Papyrus.flac
     0:41.35        7314764 B   ---   --   ---xx   flac  0.4535  10 Maple Leaf Rag.flac
     1:30.05       15887804 B   ---   --   ---xx   flac  0.5507  11 Guelah Papyrus.flac
     8:21.41       88472876 B   ---   --   ---xx   flac  0.5051  12 McGrupp And The Watchful Homemasters.flac
     9:15.21       97951436 B   ---   --   ---xx   flac  0.5267  13 Limb By Limb.flac
     7:39.40       81061724 B   ---   --   ---xx   flac  0.5583  14 Walk Away.flac
     0:46.24        8170892 B   ---   --   ---xx   flac  0.3967  15 Tuning.flac
    20:01.67      212014028 B   ---   --   ---xx   flac  0.5138  16 Golden Age.flac
     9:18.58       98567660 B   ---   --   ---xx   flac  0.4930  17 Leaves.flac
     0:56.72       10047788 B   ---   --   ---xx   flac  0.4134  18 Swept Away.flac
    12:35.59      133320812 B   ---   --   ---xx   flac  0.4950  19 Steep.flac
    12:01.41      127280876 B   ---   --   ---xx   flac  0.4813  20 46 Days.flac
    13:04.00      138297644 B   ---   --   ---xx   flac  0.5308  21 Piper.flac
     9:44.67      103175228 B   ---   --   ---xx   flac  0.5507  22 Possum.flac
     3:22.21       35682236 B   ---   --   ---xx   flac  0.4279  23 Encore Break.flac
     4:05.74       43392092 B   ---   --   ---xx   flac  0.4961  24 Rock n Roll Suicide.flac
   154:17.70     1633100496 B                            0.5131  (24 files)



Show Checksums
ffp
01 Tuning.flac:73687f1a407ca50c6f4f2c149c8d502e
02 O Canada.flac:e488bf618007bac62c68a9103ed3e0ea
03 Crowd Control.flac:1173310bc4ff21771724493e379a3e0f
04 Sugar Shack.flac:dd8acb1b9cadbba8535f4d80d47c885b
05 When The Circus Comes To Town.flac:d0d84237c9a89833a173082590d85728
06 Daniel Saw The Stone.flac:346a82342a9a09549348607325bf1e8f
07 Army Of One.flac:3c9cd14717f44bf35fee95ca10a728e6
08 The Wedge.flac:ff2651379690d74d5b7fbedb5720763c
09 Guelah Papyrus.flac:ec167f48cdc434f16a27d27bb0b32910
10 Maple Leaf Rag.flac:e6e6a651d7d53fe7df53457b176614b1
11 Guelah Papyrus.flac:2d5893c16dafe2aaa7593dc343c2b667
12 McGrupp And The Watchful Homemasters.flac:b39d1cc6b24540d5ff9240120d6aaeb0
13 Limb By Limb.flac:2dcf6177d6af332ce073fc98d1cbc6a8
14 Walk Away.flac:1c06c8ff08673ef014ccab123fa5e639
15 Tuning.flac:8e963f71f58f8c32282922960c956c40
16 Golden Age.flac:612a712357c82d67fd1de43607e261f1
17 Leaves.flac:7eff2f4e9edc746897bccb24360da576
18 Swept Away.flac:2f7a1d31e3e703d842bb0e4ed39635a0
19 Steep.flac:f059ea9206a0668679c32a580ba0004e
20 46 Days.flac:67805584a04ac14895800272ef743475
21 Piper.flac:31baf88c66219a42e58cff22c2f79d1b
22 Possum.flac:2e2846111287c03ba5fabfce7fc9f472
23 Encore Break.flac:4a6540234d2b3d97ed03bbe753f1bb49
24 Rock n Roll Suicide.flac:3d47212216359f5c0942ffd512a5ccf8
flac-md5
8915089e3716dff4131990f68b49bb08 *01 Tuning.flac
15f357791f704c9b4420611e1df61534 *02 O Canada.flac
a8083de37261be964a42b2c1e418c465 *03 Crowd Control.flac
43f61114eeac45c03cfe62a0e75ea91a *04 Sugar Shack.flac
a231b5c63d57ce106b2b14df744d742f *05 When The Circus Comes To Town.flac
7e36d7778cf7477140092046d7f734f0 *06 Daniel Saw The Stone.flac
f7237fcbfa063c308463acab166ffd7b *07 Army Of One.flac
5e01f09f26e3b8a42376db83148a1bfa *08 The Wedge.flac
b062f3f72d85200b8b4e66f13c9d8028 *09 Guelah Papyrus.flac
98da33a71cda0a43bb0db203d4601a11 *10 Maple Leaf Rag.flac
19a577005ca0dead00c52ffd21446629 *11 Guelah Papyrus.flac
e369429bc19868bb6145b40daf515493 *12 McGrupp And The Watchful Homemasters.flac
520b1f221add19310cc5220d0095fdc7 *13 Limb By Limb.flac
d09ff72d970d204a142a692d2bee16bd *14 Walk Away.flac
3c75a2e3f82ba3a1ff876aa76bed5308 *15 Tuning.flac
d0da92dd901903ec090c5844904c61f2 *16 Golden Age.flac
a0b902164e477788b117ac4d8b44f662 *17 Leaves.flac
7a705510773c974798929093eda9b064 *18 Swept Away.flac
0acf85317892ecdaefa596f987001cb7 *19 Steep.flac
a5b96d3edb3dd91d381c3ea6e1a0ceab *20 46 Days.flac
52316525651999fe8cd701c79e7963bd *21 Piper.flac
f45a76d0999bc647e91e2c4c29ce37ab *22 Possum.flac
3e7f9035d4f3920725c47a82e376d93f *23 Encore Break.flac
8b8ebea159f6b48265e6be30a25b860b *24 Rock n Roll Suicide.flac

Comments
Add Comment
Other Sources (comments)
flac16 44.1khz ... (0) flac16 44.1khz ... (0) flac24 48khz ... (0) flac24 96khz Field:... (0) flac16 48khz ... (0) flac24 96khz ... (0) flac16 44.1khz ... (1)
Date User Comment