Browse Collections Artists Sources   Search Dates

Add Show    List Management    Help


Phish 08/04/17
Madison Square Garden, New York, NY
Comments Add Comment    Source Collectors    Add to Collection    Add to Want List    History
Source # 139510 Other Sources
Entered by Matt Vernon
Checksums ffp , flac-md5
Disc Counts 0 / 0
Media Size Compressed: 832.27 MB (872697856 bytes)
Date Circulated
Date Added
10/02/2017
10/02/2017
Source Summary flac16 44.1khz Schoeps CMC6/MK4 > Sound Devices 744T (24bit/96k) > Samplitude Pro X3 Suite > FLAC/24. Section 2 Row 1 Seat 20 with the mic stand 9 feet high. Recorded and Mastered By Charlie Miller 
Source Information - Download Text | Download Zip
Phish - August 4, 2017
Madison Square Garden - New York, NY
Baker's Dozen Show 11 - Lemon

Recording Info:
Schoeps CMC6/MK4 > Sound Devices 744T (24bit/96k) > Samplitude Pro X3 Suite > FLAC/24
(1 DVD FLAC)

Recorded and Mastered By Charlie Miller
[email protected]
August 14, 2017

Notes:
-- Section 2 Row 1 Seat 20 with the mic stand 9 feet high
-- Chris Kuroda allowed me to set up next to him in the lighting booth
-- This fileset is 16 bit @ 44.1

Set 1:
01 - Tuning
02 - See That My Grave Is Kept Clean
03 - Punch You In The Eye
04 - Party Time
05 - Big Black Furry Creatures From Mars
06 - Dinner Ave A Movie
07 - Ocelot
08 - Poor Heart
09 - Winterqueen
10 - Bold As Love
11 - First Tube

Set 2:
12 - Tuning
13 - Dem Bones
14 - No Men In No Man's Land
15 - Everything In It's Right Place
16 - What's The Use
17 - Scents And Subtle Sounds
18 - Prince Caspian
19 - Fluffhead

Encore:
20 - Encore Break
21 - Frankenstein


SHNTOOL OUTPUT:
    length     expanded size    cdr  WAVE problems  fmt   ratio  filename
     1:08.11       12021116 B   ---   --   ---xx   flac  0.4856  01 Tuning.flac
     5:57.45       63080684 B   ---   --   ---xx   flac  0.5245  02 See That My Grave Is Kept Clean.flac
     8:01.55       84977804 B   ---   --   ---xx   flac  0.5251  03 Punch You In The Eye.flac
     8:40.59       91866812 B   ---   --   ---xx   flac  0.5376  04 Party Time.flac
     4:44.60       50238764 B   ---   --   ---xx   flac  0.5122  05 Big Black Furry Creatures From Mars.flac
     3:49.50       40513244 B   ---   --   ---xx   flac  0.5449  06 Dinner And A Movie.flac
     9:39.27      102199148 B   ---   --   ---xx   flac  0.5207  07 Ocelot.flac
     2:37.40       27788924 B   ---   --   ---xx   flac  0.5313  08 Poor Heart.flac
     9:38.19      102003932 B   ---   --   ---xx   flac  0.5014  09 Winterqueen.flac
     6:02.51       63976796 B   ---   --   ---xx   flac  0.5405  10 Bold As Love.flac
    10:54.71      115532636 B   ---   --   ---xx   flac  0.5921  11 First Tube.flac
     1:05.71       11633036 B   ---   --   ---xx   flac  0.4653  12 Tuning.flac
     2:36.21       27567836 B   ---   --   ---xx   flac  0.4591  13 Dem Bones.flac
    14:00.10      148199564 B   ---   --   ---xx   flac  0.5415  14 No Men In No Man's Land.flac
     6:36.40       69948524 B   ---   --   ---xx   flac  0.5097  15 Everything In It's Right Place.flac
     6:41.26       70797596 B   ---   --   ---xx   flac  0.4945  16 What's The Use.flac
    16:33.43      175266380 B   ---   --   ---xx   flac  0.5417  17 Scents And Subtle Sounds.flac
    10:07.36      107159516 B   ---   --   ---xx   flac  0.5139  18 Prince Caspian.flac
    16:46.57      177592508 B   ---   --   ---xx   flac  0.5167  19 Fluffhead.flac
     4:14.36       44890316 B   ---   --   ---xx   flac  0.4337  20 Encore Break.flac
     6:49.44       72251132 B   ---   --   ---xx   flac  0.5478  21 Frankenstein.flac
   156:47.47     1659506268 B                            0.5259  (21 files)



Show Checksums
ffp
01 Tuning.flac:8f3522a76098063397c2466a155098f0
02 See That My Grave Is Kept Clean.flac:df5a8c16a6b3ae5e732ca52ed2c45ad8
03 Punch You In The Eye.flac:b2a46862db6f27c7cb055276dfbc5366
04 Party Time.flac:681350c6662d9f0bd015ecfc871e8ecf
05 Big Black Furry Creatures From Mars.flac:fbec8a9880de06dc9b6cc75e61c3d5c8
06 Dinner And A Movie.flac:17508e0cce09e0f87327c872c536beb4
07 Ocelot.flac:5eb13664641049de725ef2a998b66f13
08 Poor Heart.flac:5acc7818169171974053ffaa5410e539
09 Winterqueen.flac:99b3f6568d384e06006d6f6374720de4
10 Bold As Love.flac:7b00ed56a3d0f7905ab99b92c66056cc
11 First Tube.flac:c7da4ee9769bc66c197f23bbfc9a6115
12 Tuning.flac:9b20e461d41a68ca9458f789b2e70f7b
13 Dem Bones.flac:ee3acde2c767b31a0b666ba246ac7c51
14 No Men In No Man's Land.flac:c4bdf6f4915b5b3310f5c8c2ca700932
15 Everything In It's Right Place.flac:02fdca08a05a75f83a78faa1421c634a
16 What's The Use.flac:1b7847ebd1c013e49ebad8729bfc10f2
17 Scents And Subtle Sounds.flac:b09e4bf5eaf17931035cafe3fca79d7f
18 Prince Caspian.flac:aeafec21985e3981991cee99b70181e7
19 Fluffhead.flac:bb8675fb80d44efaa8f1ad8efaa482e3
20 Encore Break.flac:fbd2a34b1154799c32bfaa3366de2258
21 Frankenstein.flac:d650770e96795677e1ad1db9d657fbc8
flac-md5
654677ed79d26c02f17bdeb5ac423794 *01 Tuning.flac
d4dcaba385979977be741e02bab559f1 *02 See That My Grave Is Kept Clean.flac
c3c085aa01c84d6f33b90be08f1da93d *03 Punch You In The Eye.flac
c38ca62a51d8ccf9f186bd222cca4722 *04 Party Time.flac
c373519096e8bb907ab208927cf5732f *05 Big Black Furry Creatures From Mars.flac
cf6e3a11e24fdc77c4c84d3a7a51ab9a *06 Dinner And A Movie.flac
89db87dffaed9e961f853d05869e1376 *07 Ocelot.flac
0717f376bf93511185b52ed97369e159 *08 Poor Heart.flac
fd3f994211bf893a677df98fe90d4216 *09 Winterqueen.flac
a309db6d5afdaf9ae9f5f6a5b813909e *10 Bold As Love.flac
3968b05041877bdc9b07fc095dabbbad *11 First Tube.flac
00be9bb5ee98c421a73b216076ac398b *12 Tuning.flac
3d8b39ac5b971874ae995a59eac3c2ff *13 Dem Bones.flac
345e020177065b298caf6a0d4dec2ff1 *14 No Men In No Man's Land.flac
b3294e1d111f452a8e3af7c9cf8cc07c *15 Everything In It's Right Place.flac
f05b7d056120212581f112db44cf9d5a *16 What's The Use.flac
4b1fa2bb20d01cabe24ed4cf096d62a7 *17 Scents And Subtle Sounds.flac
a50f90e49714a8225cac58439563ff64 *18 Prince Caspian.flac
f6b44795947104bfc85d7adaddce507d *19 Fluffhead.flac
913c9fed630a28a0b4def4660ceddaa9 *20 Encore Break.flac
86c3ac6d21f67994d9f991d6e455aee9 *21 Frankenstein.flac

Comments
Add Comment
Other Sources (comments)
flac16 44.1khz ... (0) flac16 44.1khz ... (0) flac16 44.1khz ... (0) flac24 48khz ... (0) flac16 44.1khz ... (0) flac16 48khz Field:... (0) flac24 96khz... (0) flac16 44.1khz ... (1) flac24 96khz ... (0) flac24 96khz ... (0) flac24 96khz ... (0) flac24 48khz ... (0) flac24 48khz... (0) flac16 44.1khz... (0) flac24 48khz ... (0) flac24 96khz ... (0) flac16 48kHz Neumann... (0)
Date User Comment