Browse Collections Artists Sources   Search Dates

Add Show    List Management    Help


Phish 08/06/17
Madison Square Garden, New York, NY
Comments Add Comment    Source Collectors    Add to Collection    Add to Want List    History
Source # 139512 Other Sources
Entered by Matt Vernon
Checksums ffp , flac-md5
Disc Counts 0 / 0
Media Size Compressed: 810.58 MB (849956864 bytes)
Date Circulated
Date Added
10/02/2017
10/02/2017
Source Summary flac16 44.1khz Schoeps CMC6/MK4 > Sound Devices 744T (24bit/96k) > Samplitude Pro X3 Suite > FLAC/24. Section 2 Row 1 Seat 20 with the mic stand 9 feet high. Recorded and Mastered By Charlie Miller 
Source Information - Download Text | Download Zip
Phish - August 6, 2017
Madison Square Garden - New York, NY
Baker's Dozen Show 13 - Glazed

Recording Info:
Schoeps CMC6/MK4 > Sound Devices 744T (24bit/96k) > Samplitude Pro X3 Suite > FLAC/24
(1 DVD FLAC)

Recorded and Mastered By Charlie Miller
[email protected]
August 15, 2017

Notes:
-- Section 2 Row 1 Seat 20 with the mic stand 9 feet high
-- Chris Kuroda allowed me to set up next to him in the lighting booth
-- This fileset is 16 bit @ 44.1

Set 1:
01 - Tuning
02 - Dogs Stole things
03 - Rift
04 - Ha Ha Ha
05 - Camel Walk
06 - Crazy Sometimes
07 - Saw It Again
08 - Sanity
09 - Bouncing Around The Room
10 - Most Events Aren't Planned
11 - Bug
12 - I Been Around
13 - Izabella

Set 2:
14 - Tuning
15 - Simple
16 - Rise/Come Together
17 - Starman
18 - You Enjoy Myself
19 - Loving Cup

Encore:
20 - Encore Break
21 - On The Road Again
22 - Lawn Boy Reprise
23 - Tweezer Reprise


SHNTOOL OUTPUT:
    length     expanded size    cdr  WAVE problems  fmt   ratio  filename
     1:00.74       10759212 B   -b-   --   -----    wav  1.0000  01 Tuning.wav
     4:26.07       46938740 B   -b-   --   -----    wav  1.0000  02 Dogs Stole Things.wav
     6:25.40       68008832 B   -b-   --   -----    wav  1.0000  03 Rift.wav
     1:37.34       17191876 B   -b-   --   -----    wav  1.0000  04 Ha Ha Ha.wav
     6:20.55       67161888 B   -b-   --   -----    wav  1.0000  05 Camel Walk.wav
     7:43.42       81772572 B   -b-   --   -----    wav  1.0000  06 Crazy Sometimes.wav
     5:59.48       63439768 B   -b-   --   -----    wav  1.0000  07 Saw It Again.wav
     5:31.51       58508712 B   -b-   --   -----    wav  1.0000  08 Sanity.wav
     4:01.11       42538224 B   -b-   --   -----    wav  1.0000  09 Bouncing Around The Room.wav
    11:38.33      123204388 B   -b-   --   -----    wav  1.0000  10 Most Events Aren't Planned.wav
     7:45.03       82033868 B   -b-   --   -----    wav  1.0000  11 Bug.wav
     3:14.46       34329548 B   -b-   --   -----    wav  1.0000  12 I Been Around.wav
     6:44.68       71425832 B   -b-   --   -----    wav  1.0000  13 Izabella.wav
     0:30.45        5398896 B   -b-   --   -----    wav  1.0000  14 Tuning.wav
    25:34.03      270604788 B   -b-   --   -----    wav  1.0000  15 Simple.wav
     7:23.64       78296064 B   -b-   --   -----    wav  1.0000  16 Rise Come Together.wav
     5:29.40       58129408 B   -b-   --   -----    wav  1.0000  17 Starman.wav
    23:58.04      253671952 B   -b-   --   -----    wav  1.0000  18 You Enjoy Myself.wav
     6:37.00       70029748 B   -b-   --   -----    wav  1.0000  19 Loving Cup.wav
     4:39.45       49321816 B   -b-   --   -----    wav  1.0000  20 Encore Break.wav
     2:30.10       26482516 B   -b-   --   -----    wav  1.0000  21 On The Road Again.wav
     1:59.63       21139412 B   -b-   --   -----    wav  1.0000  22 Lawn Boy Reprise.wav
     4:10.55       44229308 B   -b-   --   -----    wav  1.0000  23 Tweezer Reprise.wav
   155:23.17     1644617368 B                            1.0000  (23 files)




Show Checksums
ffp
01 Tuning.flac:e4a762139924c5400b36af34418ee40b
02 Dogs Stole Things.flac:d14740459b0ba5b49b921251fa2e2cd2
03 Rift.flac:c0b3be0e2a43422d89bbb99067c0139b
04 Ha Ha Ha.flac:6fabc21d5d26096ceb918b71dbcdf67e
05 Camel Walk.flac:dee97429956877372c5c65f9cb10d13f
06 Crazy Sometimes.flac:9c1b438fe03e1fe79fc97a0de767f49a
07 Saw It Again.flac:4cb08e9333e70691b82d36d74378eb33
08 Sanity.flac:56749bb07f8db13a28de8914a1ae91f8
09 Bouncing Around The Room.flac:f52c2b4dc233cd529ff5334b28770be6
10 Most Events Aren't Planned.flac:2aa0c1bcc2eea2dbfd3ca69045e0889d
11 Bug.flac:0e7f94e24f0d74795245e7fee0ed6a70
12 I Been Around.flac:13b88fbc15eb4e152b63201ce299d6f1
13 Izabella.flac:3cacedf44019541b92e6d4df54b5dc01
14 Tuning.flac:a24d8e123c69c2eeffbeceea8f6e7b51
15 Simple.flac:d557d1371a8c075c84f1c85cce126bc7
16 Rise Come Together.flac:4bdd180717d76f61efcf3c74bd46695c
17 Starman.flac:b4b033d4196675492d635d25327f006c
18 You Enjoy Myself.flac:d4239ddb6f2b2d23e6f5f5c864300c6c
19 Loving Cup.flac:27ea29a77bd066962780536066af3281
20 Encore Break.flac:b7805df5ffc94ff8e863b33425709060
21 On The Road Again.flac:cb564c550c544b18ec88241606f8cd37
22 Lawn Boy Reprise.flac:2942441dd87db0b0ae25291538b3724e
23 Tweezer Reprise.flac:7edb6a4904e61dfdc139ad173468d397
flac-md5
53bbfa75855339aed2bbdf2a6665bc72 *01 Tuning.flac
2695527fb5a9bf1ece5a3dfdb1f17964 *02 Dogs Stole Things.flac
afb26795e13f3134b19ec60c4c0e6e6e *03 Rift.flac
eccabf94bd6f657494d43e71c8626d8b *04 Ha Ha Ha.flac
6d44323851e69a4c28ef90ffaef1838c *05 Camel Walk.flac
983dba0f2dd4ea99cea1e11fa8e08c73 *06 Crazy Sometimes.flac
204bc7f3794baa7933fc4e31aecc947b *07 Saw It Again.flac
bd6ff44c9523dffc48e8ce1a94af4d11 *08 Sanity.flac
2e751fe1e7e5da22e8aafecdc67adb06 *09 Bouncing Around The Room.flac
b8b8b47155fddc4c4ea3630bdd1cdc54 *10 Most Events Aren't Planned.flac
a953911711a4be068e4630bcb68db49b *11 Bug.flac
3014e83312225064d6ed7635dc82e629 *12 I Been Around.flac
51c902505915b8bfe151462c9c934721 *13 Izabella.flac
21aedda6f518e9d5766324a90c49821d *14 Tuning.flac
0dc9aedfedf0e87e2344f2cf172521a5 *15 Simple.flac
1da618a697ea3a5c309393dd1d06f734 *16 Rise Come Together.flac
44a8d780e892eb8a821032bb6e250ba3 *17 Starman.flac
20c4a034e436d93e04ddfd209f4d5ad5 *18 You Enjoy Myself.flac
7a9df971f907e45a61d0279f16feb00c *19 Loving Cup.flac
68ab4bd93504f8008650bd82d3bb70c7 *20 Encore Break.flac
d90bf98b9a7c50ac9e5727a7d811e684 *21 On The Road Again.flac
3899867a65f24b3dfefec7b2ff1cc94c *22 Lawn Boy Reprise.flac
c628ed923305a4247b7bc0b36cc6c6a7 *23 Tweezer Reprise.flac

Comments
Add Comment
Other Sources (comments)
flac16 44.1khz ... (0) flac24 96khz ... (0) flac16 48khz ... (0) flac16 44.1khz ... (0) flac24 48khz ... (0) flac16 44.1khz ... (0) flac16 44.1khz... (0) flac16 44.1khz ... (0) flac24 96khz ... (0) flac24 96khz ... (0) flac24 96khz ... (0) flac24 48khz... (0) flac24 96khz ... (0) flac16 44.1khz ... (1) flac16 48kHz Neumann... (0)
Date User Comment