Browse Collections Artists Sources   Search Dates

Add Show    List Management    Help


Grateful Dead 08/12/81
Salt Palace, Salt Lake City, UT
Comments Add Comment    Source Collectors    Add to Collection    Add to Want List    History
Source # 139593 Other Sources
Entered by Matt Vernon
Checksums ffp , flac-md5
Disc Counts 0 / 0
Media Size Compressed: 1.16 GB (1244829101 bytes)
Uncompressed: 1.91 GB (2048302520 bytes)
Date Circulated
Date Added
10/25/2017
10/25/2017
Source Summary flac16/48kHz; Recording Info: SBD > Cassette Master (Sony TC-D5M) > Reel > Dat (48k); Transfer Info: Dat (Sony PCM-R500) > Tascam DA-3000 > Samplitude Pro X3 Suite > FLAC/48k; All Transfers and Mastering by Charlie Miller 
  Archive
Source Information - Download Text | Download Zip
Grateful Dead - August 12, 1981
Salt Palace - Salt Lake City, UT

Recording Info:
SBD > Cassette Master (Sony TC-D5M) > Reel > Dat (48k)

Transfer Info:
Dat (Sony PCM-R500) > Tascam DA-3000 > Samplitude Pro X3 Suite > FLAC/48k
(1 DVD FLAC)

All Transfers and Mastering by Charlie Miller
[email protected]
October 24, 2017

Patch Info:
Unknown Audience Recording > CD supplies:
Alabama Getaway (complete track)
Greatest Story Ever Told (complete track)
Friend Of The Devil (0:00 - 0:32)
Estimated Prophet (0:23 - end of track)
Eyes Of The World (0:00 - 1:56)
Around And Around (2:40 - end of track)
Good Lovin' (0:00 - 0:09)

Notes:
-- Thanks to Dan Healy, Frank Streeter and Rob Eaton for the tapes

Set 1:
01 - Alabama Getaway >
02 - Greatest Story Ever Told
03 - Friend Of The Devil
04 - Mama Tried >
05 - Mexicali Blues
06 - Jack-A-Roe >
07 - C C Rider
08 - Althea >
09 - Lost Sailor >
10 - Saint Of Circumstance

Set 2:
11 - Tuning
12 - Might As Well >
13 - Man Smart (Woman Smarter)
14 - Scarlet Begonias >
15 - Fire On The Mountain
16 - Estimated Prophet >
17 - Eyes Of The World >
18 - Drums >
19 - Space >
20 - Spanish Jam >
21 - Truckin' >
22 - Morning Dew >
23 - Around And Around >
24 - Good Lovin'

Encore:
25 - Encore Break
26 - U.S. Blues


SHNTOOL OUTPUT:
    length     expanded size    cdr  WAVE problems  fmt   ratio  filename
     4:51.397      55948192 B   cxx   --   ---xx   flac  0.6312  01 Alabama Getaway.flac
     4:25.008      50881584 B   cxx   --   ---xx   flac  0.6176  02 Greatest Story Ever Told.flac
    10:52.130     125209024 B   cxx   --   ---xx   flac  0.5697  03 Friend Of The Devil.flac
     2:29.139      28634820 B   cxx   --   ---xx   flac  0.6207  04 Mama Tried.flac
     6:32.114      75285864 B   cxx   --   ---xx   flac  0.5668  05 Mexicali Blues.flac
     4:46.096      54930468 B   cxx   --   ---xx   flac  0.6022  06 Jack-A-Roe.flac
     9:08.895     105387844 B   cxx   --   ---xx   flac  0.5794  07 CC Rider.flac
     9:38.737     111117596 B   cxx   --   ---xx   flac  0.5943  08 Althea.flac
     6:41.678      77122200 B   cxx   --   ---xx   flac  0.5738  09 Lost Sailor.flac
     6:55.463      79768956 B   cxx   --   ---xx   flac  0.6200  10 Saint Of Circumstance.flac
     1:18.426      15057872 B   cxx   --   ---xx   flac  0.4639  11 Tuning.flac
     4:15.646      49084040 B   cxx   --   ---xx   flac  0.6786  12 Might As Well.flac
     6:48.493      78430636 B   cxx   --   ---xx   flac  0.6138  13 Man Smart (Woman Smarter).flac
    11:20.720     130698268 B   cxx   --   ---xx   flac  0.6575  14 Scarlet Begonias.flac
    12:28.122     143639548 B   cxx   --   ---xx   flac  0.6376  15 Fire On The Mountain.flac
    11:07.555     128170620 B   cxx   --   ---xx   flac  0.6498  16 Estimated Prophet.flac
    10:16.086     118288552 B   cxx   --   ---xx   flac  0.6709  17 Eyes Of The World.flac
    10:14.054     117898348 B   cxx   --   ---xx   flac  0.5156  18 Drums.flac
     3:00.199      34598320 B   cxx   --   ---xx   flac  0.5389  19 Space.flac
     3:09.137      36314428 B   cxx   --   ---xx   flac  0.6123  20 Spanish Jam.flac
     7:50.083      90256016 B   cxx   --   ---xx   flac  0.6532  21 Truckin'.flac
    11:25.416     131599908 B   cxx   --   ---xx   flac  0.5788  22 Morning Dew.flac
     3:58.277      45749288 B   cxx   --   ---xx   flac  0.5956  23 Around And Around.flac
     7:40.433      88403084 B   cxx   --   ---xx   flac  0.6248  24 Good Lovin'.flac
     1:25.958      16503956 B   cxx   --   ---xx   flac  0.5160  25 Encore Break.flac
     5:08.974      59323088 B   cxx   --   ---xx   flac  0.6071  26 US Blues.flac
   177:48.236    2048302520 B                            0.6077  (26 files)


Show Checksums
ffp
01 Alabama Getaway.flac:5b4e4d4b99eb50035e6a7339967dd94a
02 Greatest Story Ever Told.flac:e90fc98f0ff8424a181553f94c061228
03 Friend Of The Devil.flac:f1bd760abe1476372b913f89e0cc0de3
04 Mama Tried.flac:a1e3877e7236c2db4c23f2c29619869b
05 Mexicali Blues.flac:bf9180a764f1507cca224009d126cf61
06 Jack-A-Roe.flac:d26fc2553bcad62962a7b291720c1bf6
07 CC Rider.flac:0532d22229d68ac288c86221af321524
08 Althea.flac:2719a8b91634dcd73066c380df690e92
09 Lost Sailor.flac:ffdc798a90e781c6a312ec2b51f8c45a
10 Saint Of Circumstance.flac:00fcebb3fd8ce600079fa7d6b53e167d
11 Tuning.flac:1a8ac17d58978e1de9fa7694a1240a54
12 Might As Well.flac:ec6259c96e5dd340d9f396f70aacc611
13 Man Smart (Woman Smarter).flac:c191e4cefe420279b18e1c9f47176660
14 Scarlet Begonias.flac:ea757223f763aad2f66bbcc4dd5cfa80
15 Fire On The Mountain.flac:6e2f6256f2da441b80a4f2c012c3dfd8
16 Estimated Prophet.flac:08795998b3774b97abf68e24e1aac6c1
17 Eyes Of The World.flac:7e6b279bc9330b07130cd77c71bbe6d4
18 Drums.flac:05228a3bef22f025354d02fe053b95cd
19 Space.flac:3a3b5ddc43c002ef413a3624f88e36cf
20 Spanish Jam.flac:fe191336d9e3706d5ff886a976b84d18
21 Truckin'.flac:4bc409a6c75f8f4b9cf2172f86fad58c
22 Morning Dew.flac:2d05277039582c88f3df2e8a2b18ae75
23 Around And Around.flac:4f4f236e29f5a6ad72ce2147be0a4383
24 Good Lovin'.flac:d0ce718db9fc42eca616599835d44257
25 Encore Break.flac:b8ccdba104ce790619c86e7cc69d4af3
26 US Blues.flac:91386d8ce4735c62a4b2a00340cc182f
flac-md5
bfba681424ce2702cdac67d18e030196 *01 Alabama Getaway.flac
c1ff66de34a518cc1ea68c4ed43b6e6d *02 Greatest Story Ever Told.flac
dd85e97dd5e813f72d15b5bf80548313 *03 Friend Of The Devil.flac
86b5af4d8739167208f3d7b62a5ddb58 *04 Mama Tried.flac
3d9f1b7f9c6494978c8700cbb7948c36 *05 Mexicali Blues.flac
1a9bdc740717257624078fa66b49d63a *06 Jack-A-Roe.flac
bacf735bf8dda57628b29b660662c428 *07 CC Rider.flac
bdeeb78aebe1d0b744ad28e5582def92 *08 Althea.flac
1c9bf40f52fee78963b277c10ccf5759 *09 Lost Sailor.flac
6df14e7daa16c27d4e54319f0a6621cf *10 Saint Of Circumstance.flac
513a60fae6e0e16dca164ee322aae6a7 *11 Tuning.flac
a8fbac419207bd985fea833b54aed21a *12 Might As Well.flac
879895a63572153b217d5ab9ab4bb266 *13 Man Smart (Woman Smarter).flac
3624827564312e3acb247f0168cc8c87 *14 Scarlet Begonias.flac
8992b54f8fbf9130c3e59f288d311092 *15 Fire On The Mountain.flac
2f05e830480712a2d6c6ed052c0bd7e4 *16 Estimated Prophet.flac
4b9dd9f932df3e8d41a835fb29bce5c0 *17 Eyes Of The World.flac
f19c430445cc76963673ec89f71338b9 *18 Drums.flac
2e9e45c363dfa47d835cbd4be0b3593c *19 Space.flac
801a8d6b02fe445d078c056bd0b3adb7 *20 Spanish Jam.flac
03c36a33c9c72a750ffcf7a26bf56f85 *21 Truckin'.flac
524eac6e592c6bd4a50b10598860109a *22 Morning Dew.flac
9548b22f0068959b89067e82be89d828 *23 Around And Around.flac
ad1e4ae35b648136316d649c9b36116a *24 Good Lovin'.flac
dc6ea8d500acbc36eb26112e6a4fb462 *25 Encore Break.flac
c23d107709ed66bdc3243cc1058ad950 *26 US Blues.flac

Comments
Add Comment
Other Sources (comments)
SBD>MC>R>DAT>CDR (with... (1) flac16; Source: aud... (0) flac16; Recording... (0) flac24; Partial... (0) flac16/48 Source... (0) flac24/96 Source... (0)
Date User Comment