Browse Collections Artists Sources   Search Dates

Add Show    List Management    Help


Grateful Dead 03/24/73
The Spectrum, Philadelphia, PA
Comments Add Comment    Source Collectors    Add to Collection    Add to Want List    History
Source # 139595 Other Sources
Entered by Matt Vernon
Checksums flac-md5 , ffp
Disc Counts 0 / 0
Media Size Compressed: 1.19 GB (1275944035 bytes)
Uncompressed: 2.28 GB (2442974372 bytes)
Date Circulated
Date Added
10/25/2017
10/25/2017
Source Summary flac16; Primary Source: Betty's 10" MSR -> PCM -> DAT supplies the 2nd Set; Secondary Sources: MSR -> C -> DAT (gd73-03-24.sbd.hamilton.shnid1216) supplies the majority of the 1st set; Betty's 10" MSR -> PCM -> S/PDIF out -> disk -> digital noise reduction w/Sound Forge 6.0 (shnid83407) supplies from 7:38 of "Here Comes Sunshine" (t15)thru the end of the 1st Set; Transfer Info: DAT -> Sony PCM R500-> Tascam DA-3000-> Adobe Audition 3.0-> TLH flac16; Transfer by Charlie Miller; Mastered by Scott Clugston 
  Archive
Source Information - Download Text | Download Zip
Grateful Dead
The Spectrum
Philadelphia, PA
Saturday March 24, 1973

Source Info:
Primary Source:
Betty's 10" MSR -> PCM -> DAT supplies the 2nd Set

Secondary Sources:
MSR -> C -> DAT (gd73-03-24.sbd.hamilton.shnid1216) supplies the majority of the 1st set, Berth (t01) thru 7:38 of "Here Comes Sunshine" (t15), the patch in "Truckin" from 8:05 thru 9:28 as well as the tuning and first few beats of "Johnn B. Goode" (t31)

Betty's 10" MSR -> PCM -> S/PDIF out -> disk -> digital noise reduction w/Sound Forge 6.0 (shnid83407) supplies from 7:38 of "Here Comes Sunshine" (t15)thru the end of the 1st Set

Transfer Info:
DAT -> Sony PCM R500-> Tascam DA-3000-> Adobe Audition 3.0-> TLH flac16

Notes:

- Thanks to Charlie Miller for the transfer
- Thanks to the folks responsible for gd73-03-24.sbd.hamilton.shnid1216
- Thanks to the folks involved in the WBOTB Project for gd73-03-24.sbd.cantor.diebert.shnid83407
- This composite utilizes 3 sources to provide a virtually complete show in one fileset, utilizing the best available sources as of 10/2017
- The Betty Board in general circulation has digital noise reduction processing applied to it
  This transcription of the 2nd Set Betty Board does not have digital noise reduction
- The Betty Board in general circulation (shnid83407) has a cut in "Truckin'"
- "Bertha" (t01)had level/mix fluctuations for the first 1:30 or so. The level fluctuations were minimized
- shnid1216 source was missing most of the between song tunings/banter and had some abrupt between
  song transitions,these transitions have been smoothed
- First several seconds of "Here Comes Sunshine" (t15) are missing
- While all copies had level/mix issues in the beginning of "Promised Land" (t19),the Betty Boards exhibited
  more severe level/mix fluctuations than the shnid1216 MSR->C source, so the tuning and first 0:16 of
  "Promised Land" are from the shnid1216 source and the level fluctuations were minimized
- Truckin'-> Jam-> Spanish Jam (t27)clocks in at 32:37

Transfer by Charlie Miller
Mastered by Scott Clugston
10/24/2017

Set1
t01-Bertha
t02-Beat It On Down The Line
t03-Don't Ease Me In
t04-The Race Is On
t05-Cumberland Blues
t06-Box Of Rain
t07-Row Jimmy
t08-Jack Straw
t09-They Love Each Other
t10-Mexicali Blues
t11-Tennessee Jed
t12-Looks Like Rain
t13-Wave That Flag
t14-El Paso
t15-Here Comes// Sunshine
t16-Me And Bobby McGee
t17-Loser
t18-Playing In The Band

Set2
t19-Tuning
t20-Promised Land
t21-China Cat Sunflower ->
t22-I Know You Rider
t23-Big River
t24-Stella Blue
t25-Me And My Uncle
t26-He's Gone ->
t27-Tr//uckin' ->
    Jam ->
    Spanish Jam->
t28-Dark Star ->
t29-Sing Me Back Home ->
t30-Sugar Magnolia
Encore
t31-//Johnny B. Goode

    length     expanded size    cdr  WAVE problems  fmt   ratio  filename
     5:49.16       61601276 B   ---   --   ---xx   flac  0.6008  gd73-03-24 t01 Bertha.flac
     3:14.43       34322780 B   ---   --   ---xx   flac  0.5744  gd73-03-24 t02 Beat It On Down The Line.flac
     3:21.74       35630492 B   ---   --   ---xx   flac  0.6037  gd73-03-24 t03 Don't Ease Me In.flac
     3:08.50       33280844 B   ---   --   ---xx   flac  0.5935  gd73-03-24 t04 The Race Is On.flac
     6:03.54       64160252 B   ---   --   ---xx   flac  0.6090  gd73-03-24 t05 Cumberland Blues.flac
     5:12.15       55072124 B   ---   --   ---xx   flac  0.6036  gd73-03-24 t06 Box Of Rain.flac
     7:53.28       83503100 B   ---   --   ---xx   flac  0.5880  gd73-03-24 t07 Row Jimmy.flac
     4:52.26       51569996 B   ---   --   ---xx   flac  0.5993  gd73-03-24 t08 Jack Straw.flac
     5:35.33       59171660 B   ---   --   ---xx   flac  0.6048  gd73-03-24 t09 They Love Each Other.flac
     3:27.32       36590108 B   ---   --   ---xx   flac  0.6169  gd73-03-24 t10 Mexicali Blues.flac
     7:46.59       82341212 B   ---   --   ---xx   flac  0.5928  gd73-03-24 t11 Tennessee Jed.flac
     8:04.11       85403516 B   ---   --   ---xx   flac  0.5403  gd73-03-24 t12 Looks Like Rain.flac
     6:10.35       65350364 B   ---   --   ---xx   flac  0.5883  gd73-03-24 t13 Wave That Flag.flac
     4:11.41       44372876 B   ---   --   ---xx   flac  0.5602  gd73-03-24 t14 El Paso.flac
     9:55.69      105120332 B   ---   --   ---xx   flac  0.5342  gd73-03-24 t15 Here Comes Sunshine.flac
     6:17.38       66592220 B   ---   --   ---xx   flac  0.4249  gd73-03-24 t16 Me & Bobby McGee.flac
     9:31.43      100825580 B   ---   --   ---xx   flac  0.3617  gd73-03-24 t17 Loser.flac
    19:24.12      205357868 B   ---   --   ---xx   flac  0.4701  gd73-03-24 t18 Playing In The Band.flac
     1:12.26       12761996 B   ---   --   ---xx   flac  0.4280  gd73-03-24 t19 Tuning.flac
     3:11.57       33826508 B   ---   --   ---xx   flac  0.5353  gd73-03-24 t20 Promised Land.flac
     5:42.34       60408812 B   ---   --   ---xx   flac  0.5293  gd73-03-24 t21 China Cat Sunflower.flac
     9:05.43       96239180 B   ---   --   ---xx   flac  0.5220  gd73-03-24 t22 I Know You Rider.flac
     5:10.41       54780476 B   ---   --   ---xx   flac  0.4885  gd73-03-24 t23 Big River.flac
     8:22.35       88635164 B   ---   --   ---xx   flac  0.4213  gd73-03-24 t24 Stella Blue.flac
     3:18.06       34941356 B   ---   --   ---xx   flac  0.5027  gd73-03-24 t25 Me & My Uncle.flac
    13:44.46      145461836 B   ---   --   ---xx   flac  0.4799  gd73-03-24 t26 He's Gone.flac
    32:37.25      345273644 B   ---   --   ---xx   flac  0.5252  gd73-03-24 t27 Truckin'.flac
     3:56.54       41757452 B   ---   --   ---xx   flac  0.5016  gd73-03-24 t28 Dark Star.flac
    10:16.34      108742412 B   ---   --   ---xx   flac  0.4271  gd73-03-24 t29 Sing Me Back Home.flac
    10:16.29      108730652 B   ---   --   ---xx   flac  0.5638  gd73-03-24 t30 Sugar Magnolia.flac
     3:53.20       41148284 B   ---   --   ---xx   flac  0.5902  gd73-03-24 t31 Johnny B. Goode.flac
   230:49.04     2442974372 B                            0.5223  (31 files)

No errors occured.


Show Checksums
flac-md5
c669cf8a262bfddef762b22f73f4eebd *gd73-03-24 t01 Bertha.flac
4f3bd60e762deb3bc84c82c735556f87 *gd73-03-24 t02 Beat It On Down The Line.flac
6c37e145c6df6476517f5d2da45a1d64 *gd73-03-24 t03 Don't Ease Me In.flac
76092fabf120759caeda3d096211c23f *gd73-03-24 t04 The Race Is On.flac
774d02fd44e06773cc7d74b3dcdfbee6 *gd73-03-24 t05 Cumberland Blues.flac
517ef49f13bbeb3f6a5b35a9e32777d1 *gd73-03-24 t06 Box Of Rain.flac
f2892048251a7fe1f50de748e5ec992c *gd73-03-24 t07 Row Jimmy.flac
6eca75b725df46c6a48156bb4c7f542e *gd73-03-24 t08 Jack Straw.flac
40b8c6cda32c3857c8d07b9f146f1f7f *gd73-03-24 t09 They Love Each Other.flac
fa67688d194ca3b533787466ecd59382 *gd73-03-24 t10 Mexicali Blues.flac
4d6cd7436a44cd579dda855e0a68dc5a *gd73-03-24 t11 Tennessee Jed.flac
ebc5fe6a836d0b2e9cb0bfe46ed81b7e *gd73-03-24 t12 Looks Like Rain.flac
3f618dd9168d8b83244884e63b287efd *gd73-03-24 t13 Wave That Flag.flac
93e9e0cc037e9e50d2710fd593edf6e4 *gd73-03-24 t14 El Paso.flac
600d9b9e82ef9c7f1aefdf6f4d658b6e *gd73-03-24 t15 Here Comes Sunshine.flac
5f975e08125151c642116602c6add4e0 *gd73-03-24 t16 Me & Bobby McGee.flac
d81e293332923d84a51a460ccc5fca3b *gd73-03-24 t17 Loser.flac
d064eb5f86467c6e735a749b9dfdfc71 *gd73-03-24 t18 Playing In The Band.flac
cebbb69d6272a5b3347e4986b8b5bf21 *gd73-03-24 t19 Tuning.flac
f096d9a6fdf31fdca5421c22bc11062e *gd73-03-24 t20 Promised Land.flac
b9662170332d3ad3457368af33110d97 *gd73-03-24 t21 China Cat Sunflower.flac
c8410ce302678b33715b4d40dfeb52fa *gd73-03-24 t22 I Know You Rider.flac
bbb459b5310f58aba8a1eaefc6fe3b5d *gd73-03-24 t23 Big River.flac
da644290e87ad75f5b378b15c3c6c51b *gd73-03-24 t24 Stella Blue.flac
8c67dbac078e51670f4da0560bb7e08b *gd73-03-24 t25 Me & My Uncle.flac
16ee283f62091863eb94d93ef4cde045 *gd73-03-24 t26 He's Gone.flac
0bc166176f222e9259bcbf43ffc80e15 *gd73-03-24 t27 Truckin'.flac
0a32a94e8a9d90f9fe0a4b69cb1591db *gd73-03-24 t28 Dark Star.flac
d738f2dc3d8eeef80f9f9b9eb39431fb *gd73-03-24 t29 Sing Me Back Home.flac
11f5c53726fecab8e8b62305f5c34826 *gd73-03-24 t30 Sugar Magnolia.flac
5ee19491a8780845364bc83b38c0341d *gd73-03-24 t31 Johnny B. Goode.flac
ffp
gd73-03-24 t01 Bertha.flac:59c0e1e320e69b25a35d238a534473c9
gd73-03-24 t02 Beat It On Down The Line.flac:42af2a5112bac3ef396417b738a6187b
gd73-03-24 t03 Don't Ease Me In.flac:d558e650148b5a60fbda30675101f8e9
gd73-03-24 t04 The Race Is On.flac:f6ee3d5f819152b833b4f28e9ba259d2
gd73-03-24 t05 Cumberland Blues.flac:0471a0f32cc23a22dccb0c2536d4a1a5
gd73-03-24 t06 Box Of Rain.flac:50018e4b627914a7a0b99817efdaf69c
gd73-03-24 t07 Row Jimmy.flac:bb282f15d62eb3b9e0ecb44a152925be
gd73-03-24 t08 Jack Straw.flac:2399cf8fd898a7bcae70e838acc77ece
gd73-03-24 t09 They Love Each Other.flac:c4e1c60c7ea778236f47399d49c194a9
gd73-03-24 t10 Mexicali Blues.flac:efc333ec7ced6d9fdac70107aa12f2f0
gd73-03-24 t11 Tennessee Jed.flac:c1970c8d9022ffc6fbd6406428a794b1
gd73-03-24 t12 Looks Like Rain.flac:661a2092f0d4911d8ae2bedfe479a3c5
gd73-03-24 t13 Wave That Flag.flac:8b840f18c9c64357f853411a41445d8e
gd73-03-24 t14 El Paso.flac:915a66cb2f828df7e705ce9e683fa307
gd73-03-24 t15 Here Comes Sunshine.flac:4550ac95a7c7ec70a9b87f4bc5dbef21
gd73-03-24 t16 Me & Bobby McGee.flac:7efa92f86eec793cb3600a7848ab41d7
gd73-03-24 t17 Loser.flac:524b4d9ab73b4685c831a0aaa3ea5c12
gd73-03-24 t18 Playing In The Band.flac:93e037a0a4aa2a988225ca26a251733c
gd73-03-24 t19 Tuning.flac:1d03b2d0c43489797b2db1424bf1a0de
gd73-03-24 t20 Promised Land.flac:c3fb1c3998cd04e750e928aa3756f8f3
gd73-03-24 t21 China Cat Sunflower.flac:4d9e58b9b2a7a31747abcbc1110d10a3
gd73-03-24 t22 I Know You Rider.flac:ca37051158fe8bc3e4616689179cce80
gd73-03-24 t23 Big River.flac:590bbc42c3d0fd509e43eac7b3c678ed
gd73-03-24 t24 Stella Blue.flac:2365cd22301802b96255267f1d56502e
gd73-03-24 t25 Me & My Uncle.flac:8d18c2031a9f5ff4854748d7bcf369eb
gd73-03-24 t26 He's Gone.flac:624fceb161a04d2e809e2c2c223a0dba
gd73-03-24 t27 Truckin'.flac:f87949785fc629a0dd3d6a207a68ba01
gd73-03-24 t28 Dark Star.flac:52ec104b8167084b2421a711b3f72c65
gd73-03-24 t29 Sing Me Back Home.flac:93dfea46496348b209a95c0dc87bf8f8
gd73-03-24 t30 Sugar Magnolia.flac:17d28ab75079ad43817dfbbe17b47cd7
gd73-03-24 t31 Johnny B. Goode.flac:2fdb5dc1db0bdcfa980b2cb7d0b737a6

Comments
Add Comment
Other Sources (comments)
S:MR > cassette > DAT >... (2) SBD>>MR>>CASS>>DAT>>CDA>>SH... (0) flac16; 10" Betty... (1)
Date User Comment