Browse Collections Artists Sources   Search Dates

Add Show    List Management    Help


Grateful Dead 10/31/90
Wembley Arena, London, England
Comments Add Comment    Source Collectors    Add to Collection    Add to Want List    History
Source # 139615 Other Sources
Entered by Matt Vernon
Checksums ffp , flac-md5
Disc Counts 0 / 0
Media Size
Uncompressed: 2.06 GB (2215407180 bytes)
Date Circulated
Date Added
10/26/2017
10/26/2017
Source Summary flac16/48kHz; Source: (FOB) Schoeps cmc4 mk41 > modified Panasonic SV-250 > Dat x 2 (48k) - Recorded by Jim Oade and provided by Rich Gastwirt; Transfer: Dat > Panasonic SV-3700 > Tascam DA-3000 . wav 16/44.1 - Transferred by Charlie Miller; Lineage: wav > iZotope RX6 Advanced > iZotope Ozone 5 Advanced > CD Wave > TLH > Flac 16; edited and mastered SIRMick October 2017 
  Archive
Source Information - Download Text | Download Zip
Grateful Dead
Wembley Arena
London, England
10/31/1990


Source: (FOB) Schoeps cmc4 mk41 > modified Panasonic SV-250 > Dat x 2 (48k) - Recorded by Jim Oade and provided by Rich Gastwirt
Transfer: Dat > Panasonic SV-3700 > Tascam DA-3000 . wav 16/44.1 - Transferred by Charlie Miller
Lineage: wav > iZotope RX6 Advanced > iZotope Ozone 5 Advanced > CD Wave > TLH > Flac 16



Set I

01   tuning
02   Help On The Way >
03   Slipknot! >
04   Franklin's Tower
05   tuning
06   Little Red Rooster
07   Loose Lucy
08   Me And My Uncle >
09   Big River
10   It Must Have Been The Roses
11   When I Paint My Masterpiece
12   Bird Song >
13   The Promised Land


Set II

01   Scarlet Begonias >
02   Fire On The Mountain >
03   Truckin' >
04   He's Gone >
05   Drums >
06   Space >
07   All Along The Watchtower >
08   Stella Blue >
09   Around And Around >
10   Good Lovin'
11   ~~encore break~~

encore

12   Werewolves Of London


Thanks to Doug, Rich and Charlie.


edited and mastered
SIRMick
October 2017


shntool output:

    length     expanded size    cdr  WAVE problems  fmt   ratio  filename
     0:46.027       8837164 B   cxx   --   ---xx   flac  0.4053  gd1990-10-31s1t01.flac
     4:22.733      50444844 B   cxx   --   ---xx   flac  0.4750  gd1990-10-31s1t02.flac
     4:46.800      55065644 B   cxx   --   ---xx   flac  0.4873  gd1990-10-31s1t03.flac
    12:04.013     139010604 B   cxx   --   ---xx   flac  0.4826  gd1990-10-31s1t04.flac
     3:08.987      36285484 B   cxx   --   ---xx   flac  0.3862  gd1990-10-31s1t05.flac
     9:38.960     111160364 B   cxx   --   ---xx   flac  0.4739  gd1990-10-31s1t06.flac
     8:20.933      96179244 B   cxx   --   ---xx   flac  0.4991  gd1990-10-31s1t07.flac
     3:01.080      34767404 B   cxx   --   ---xx   flac  0.5064  gd1990-10-31s1t08.flac
     7:15.413      83599404 B   cxx   --   ---xx   flac  0.4848  gd1990-10-31s1t09.flac
     6:08.133      70681644 B   cxx   --   ---xx   flac  0.4661  gd1990-10-31s1t10.flac
     6:35.640      75962924 B   cxx   --   ---xx   flac  0.4784  gd1990-10-31s1t11.flac
    13:32.520     156003884 B   cxx   --   ---xx   flac  0.4843  gd1990-10-31s1t12.flac
     5:06.120      58775084 B   cxx   --   ---xx   flac  0.5358  gd1990-10-31s1t13.flac
    10:05.747     116303404 B   cxx   --   ---xx   flac  0.5227  gd1990-10-31s2t01.flac
    14:34.467     167897644 B   cxx   --   ---xx   flac  0.5169  gd1990-10-31s2t02.flac
     8:13.760      94801964 B   cxx   --   ---xx   flac  0.5463  gd1990-10-31s2t03.flac
    13:37.453     156951084 B   cxx   --   ---xx   flac  0.4733  gd1990-10-31s2t04.flac
    11:11.187     128867884 B   cxx   --   ---xx   flac  0.4315  gd1990-10-31s2t05.flac
    12:04.840     139169324 B   cxx   --   ---xx   flac  0.4066  gd1990-10-31s2t06.flac
     5:59.667      69056044 B   cxx   --   ---xx   flac  0.5246  gd1990-10-31s2t07.flac
    11:16.787     129943084 B   cxx   --   ---xx   flac  0.4492  gd1990-10-31s2t08.flac
     5:55.267      68211244 B   cxx   --   ---xx   flac  0.5015  gd1990-10-31s2t09.flac
     6:08.133      70681644 B   cxx   --   ---xx   flac  0.5111  gd1990-10-31s2t10.flac
     1:48.147      20764204 B   cxx   --   ---xx   flac  0.4766  gd1990-10-31s2t11.flac
     6:35.760      75985964 B   cxx   --   ---xx   flac  0.5096  gd1990-10-31s2t12.flac
   192:18.573    2215407180 B                            0.4830  (25 files)


Show Checksums
ffp
gd1990-10-31s1t01.flac:a861d8c8c299b1fce3a030bbc28845ea
gd1990-10-31s1t02.flac:ed9a27c0bb6d009bcdd2d6982451d12e
gd1990-10-31s1t03.flac:6b52ba330d56aeee773dee31e599d459
gd1990-10-31s1t04.flac:66dae94c59bde9d38d6fe90d46d7e817
gd1990-10-31s1t05.flac:53b8de178331c3d912eac36c6d9b9fb1
gd1990-10-31s1t06.flac:ead78905fd21fab6970aea649a10e411
gd1990-10-31s1t07.flac:694fbe197621e78224e3a3a7c254c540
gd1990-10-31s1t08.flac:182defaebf0ec9f90eeb9e7eea354099
gd1990-10-31s1t09.flac:6b3932cbbb222e09108ae077676d9612
gd1990-10-31s1t10.flac:cad01360469009a0090de052441bf139
gd1990-10-31s1t11.flac:300e9c029a64f7dcaaf1a3c62b519cf7
gd1990-10-31s1t12.flac:90e491802854b65a3459e3bef4686805
gd1990-10-31s1t13.flac:3a45e863aefb99e0fc58eaa53d891b93
gd1990-10-31s2t01.flac:f8405ceae8826531d8a6e5bebbe5e726
gd1990-10-31s2t02.flac:60e7999f479a760d63bdd57eedb84434
gd1990-10-31s2t03.flac:19f020891f3e2790ea38234f39a23937
gd1990-10-31s2t04.flac:4641f455b89edb7ddd2e798070401141
gd1990-10-31s2t05.flac:afbf136bd1098594a437600898b691ef
gd1990-10-31s2t06.flac:a7178a1b2d317a131b40938797519c34
gd1990-10-31s2t07.flac:3d4d8fffc3216562fbc917ee71d11e88
gd1990-10-31s2t08.flac:3ffb489f42602a7213e03b67b256b48e
gd1990-10-31s2t09.flac:5a3a0b85983a92badbb361204482c87c
gd1990-10-31s2t10.flac:9d1b4396efaa900e0ee44828cb19e464
gd1990-10-31s2t11.flac:ed30156a5807a2a7a0ccb341cbc79e7d
gd1990-10-31s2t12.flac:086257dbaf4ab092f34e478311518f94
flac-md5
fe65de26292860f941c37fe75fa221e6 *gd1990-10-31s1t01.flac
c011941201e3e6bed56c36fa013448c4 *gd1990-10-31s1t02.flac
15a3e0b302119357ea843d4518775663 *gd1990-10-31s1t03.flac
80db9a03a8cc3375df85a84818676b9d *gd1990-10-31s1t04.flac
7cc3e865f4c62e8bc7ea6891fe772e63 *gd1990-10-31s1t05.flac
4c0244cdbaeaac57ab13d5b1d43b1bc1 *gd1990-10-31s1t06.flac
0ae7d762f8f89b7a9650f9a95fe265af *gd1990-10-31s1t07.flac
2c74e3dae9fd4881529e852f921e8ff7 *gd1990-10-31s1t08.flac
20544e49374237fc2993dca633f9c752 *gd1990-10-31s1t09.flac
25885884e016f17497b42a25048ef8c7 *gd1990-10-31s1t10.flac
cb8ed48f684deb94f03dbb04598e6dfb *gd1990-10-31s1t11.flac
82d71deb6319aed0eb9ed629b371b16f *gd1990-10-31s1t12.flac
2e3fa18e0179cc155eda463d237110e7 *gd1990-10-31s1t13.flac
e4a3f02726a403b06d6dbe111dddcbeb *gd1990-10-31s2t01.flac
46566a8b5f409cd2e8528a0ee81a0328 *gd1990-10-31s2t02.flac
fab5e03d007776387fabe9df10e432f4 *gd1990-10-31s2t03.flac
cdf3c1dfb69feb85a987fa580cd81fe6 *gd1990-10-31s2t04.flac
d7df169d99bf86c9421c856cd0ac2961 *gd1990-10-31s2t05.flac
d9178ec3f4ce48146396c266f3665adb *gd1990-10-31s2t06.flac
825244ef27a44b0cd7bbd4ccfd246912 *gd1990-10-31s2t07.flac
02ea027158911c1f6c2609fbf5915084 *gd1990-10-31s2t08.flac
a8a0b7a996c5fed452757be5619e550b *gd1990-10-31s2t09.flac
2ff8d073ad546b1dc9cce093be551687 *gd1990-10-31s2t10.flac
4ce208ffe1e67e45eda9d4c4fbfc9739 *gd1990-10-31s2t11.flac
75a35eaadaf786a4253c5b65fc5c57ca *gd1990-10-31s2t12.flac

Comments
Add Comment
Other Sources (comments)
SBD > DAT > CDR > WAV >... (0) flac16; AUD Source:... (0) flac16; Source:... (0) flac16; 2 Source... (0) flac16/48kHz; Set I:... (0) flac16/48kHz;... (0) flac16/48kHz; Dave... (0) flac16/48kHz; Rick... (0)
Date User Comment