Browse Collections Artists Sources   Search Dates

Add Show    List Management    Help


Grateful Dead 08/31/80
Capital Centre, Landover, MD
Comments Add Comment    Source Collectors    Add to Collection    Add to Want List    History
Source # 139642 Other Sources
Entered by Matt Vernon
Checksums ffp , flac-md5
Disc Counts 0 / 0
Media Size Compressed: 1.09 GB (1172411299 bytes)
Uncompressed: 1.66 GB (1783685032 bytes)
Date Circulated
Date Added
10/29/2017
10/29/2017
Source Summary flac16; Recording Info: Set 1: Sennheiser 421 > Cassette Master > SHN (shnid=7456); Set 2: SBD > Cassette Master > Cassette > CD (shnid=26353); Transfer Info: CD > Adobe Audition CC 2015 > Samplitude Professional v11.2.1 > FLAC; All Mastering By Charlie Miller 
  Archive
Source Information - Download Text | Download Zip
Grateful Dead - August 31, 1980
Capital Centre - Landover, MD

Recording Info:

Set 1: Sennheiser 421 > Cassette Master > SHN (shnid=7456)

Set 2: SBD > Cassette Master > Cassette > CD (shnid=26353)


Transfer Info:

CD > Adobe Audition CC 2015 > Samplitude Professional v11.2.1 > FLAC
(3 Discs Audio / 1 DVD FLAC)


All Mastering By Charlie Miller

[email protected]

July 4, 2016


Notes:
-- This is pitch corrected and completely remastered
-- Thanks to Andy Lemieux and Jim Wise for their help


Set 1:

01 - Alabama Getaway >

02 - The Promised Land

03 - They Love Each Other

04 - Mama Tried >

05 - Mexicali Blues

06 - Althea

07 - Little Red Rooster

08 - Tennessee Jed

09 - Far From Me

10 - Lazy Lightning >

11 - Supplication

12 - Deal



Set 2:

13 - Tuning

14 - Greatest Story Ever Told >

15 - Uncle John's Band >

16 - Lost Sailor >

17 - Saint Of Circumstance >

18 - Comes A Time >

19 - Truckin' >

20 - Drums >

21 - Space >

22 - The Other One >

23 - Stella Blue >

24 - I Need A Miracle >

25 - Good Lovin'

Encore:

26 - Brokedown Palace





SHNTOOL OUTPUT:

    length     expanded size    cdr  WAVE problems  fmt   ratio  filename
     5:15.37       55653068 B   ---   --   ---xx   flac  0.6610  01 Alabama Getaway.flac
     4:21.32       46115708 B   ---   --   ---xx   flac  0.6762  02 The Promised Land.flac
     7:29.30       79274204 B   ---   --   ---xx   flac  0.6383  03 They Love Each Other.flac
     2:36.26       27579596 B   ---   --   ---xx   flac  0.6646  04 Mama Tried.flac
     5:11.03       54867500 B   ---   --   ---xx   flac  0.6560  05 Mexicali Blues.flac
     8:29.74       89961692 B   ---   --   ---xx   flac  0.6416  06 Althea.flac
     8:24.63       89053820 B   ---   --   ---xx   flac  0.6353  07 Little Red Rooster.flac
     9:43.19      102885932 B   ---   --   ---xx   flac  0.6367  08 Tennessee Jed.flac
     4:32.42       48079628 B   ---   --   ---xx   flac  0.6407  09 Far From Me.flac
     3:19.51       35223596 B   ---   --   ---xx   flac  0.6543  10 Lazy Lightning.flac
     6:28.39       68534972 B   ---   --   ---xx   flac  0.6490  11 Supplication.flac
     4:47.41       50723276 B   ---   --   ---xx   flac  0.6653  12 Deal.flac
     1:05.61       11609516 B   ---   --   ---xx   flac  0.5619  13 Tuning.flac
     3:55.08       41472860 B   ---   --   ---xx   flac  0.7051  14 Greatest Story Ever Told.flac
     8:57.46       94835036 B   ---   --   ---xx   flac  0.6868  15 Uncle John's Band.flac
     6:49.46       72255836 B   ---   --   ---xx   flac  0.6671  16 Lost Sailor.flac
     7:01.58       74400860 B   ---   --   ---xx   flac  0.6982  17 Saint Of Circumstance.flac
     9:15.27       97965548 B   ---   --   ---xx   flac  0.6506  18 Comes A Time.flac
     8:35.49       90961292 B   ---   --   ---xx   flac  0.7100  19 Truckin'.flac
    11:21.17      120168428 B   ---   --   ---xx   flac  0.6234  20 Drums.flac
     4:20.06       45878156 B   ---   --   ---xx   flac  0.6323  21 Space.flac
     8:15.18       87360380 B   ---   --   ---xx   flac  0.6596  22 The Other One.flac
     9:26.47       99952988 B   ---   --   ---xx   flac  0.6217  23 Stella Blue.flac
     3:59.69       42321932 B   ---   --   ---xx   flac  0.6987  24 I Need A Miracle.flac
     7:24.24       78378092 B   ---   --   ---xx   flac  0.6929  25 Good Lovin'.flac
     7:23.11       78171116 B   ---   --   ---xx   flac  0.6365  26 Brokedown Palace.flac
   168:31.44     1783685032 B                            0.6568  (26 files)


Show Checksums
ffp
01 Alabama Getaway.flac:7af202c0b9266cd32972f4db59e371ce
02 The Promised Land.flac:3096d96c414dc82df173b15019bc7ab8
03 They Love Each Other.flac:a29bbd9358e00630db524c8fe45e291d
04 Mama Tried.flac:5b2f9ed4776e626584b489673d3016f0
05 Mexicali Blues.flac:4e526c04b914313071c5065e60cc3cd8
06 Althea.flac:657ba325bf5e4b6b0f365ed19f0f70bb
07 Little Red Rooster.flac:e50b0a942fa7c74a8415ead9d94786ba
08 Tennessee Jed.flac:8c18f90418100254fc44d55b59b5e18c
09 Far From Me.flac:faf5cba9134ddf83d5b97c540033cce8
10 Lazy Lightning.flac:e5a7504b3ff28a00c36ea405a20579a9
11 Supplication.flac:81e942b87a4718f7dae01bb6dbe6f7eb
12 Deal.flac:ed3c9990b204b9ef12e748f2c9dd41a6
13 Tuning.flac:4f8741f3c96a2ae36f57c85c95727d82
14 Greatest Story Ever Told.flac:08f8602d878fdf884dd1fa71ca0e91bd
15 Uncle John's Band.flac:b9b5b1001fdb241723a47372db679391
16 Lost Sailor.flac:fd982b60cae7e534dbb5d6ad38c0b542
17 Saint Of Circumstance.flac:cb1482ac40d00aed755d4366a6610bb7
18 Comes A Time.flac:9fc76cfd8b7cfdaad60efcbe4a110c73
19 Truckin'.flac:954feb2d3402bc87e1becc803825d711
20 Drums.flac:ce33130b3472d61fd1d0da611d92a082
21 Space.flac:d3df29bff145b77351ec66a7f5c1bd07
22 The Other One.flac:d0c21d01dffed3e5f65988fd61d508b0
23 Stella Blue.flac:8e876f9aa8a3ba7812403147e4c62bce
24 I Need A Miracle.flac:a079247e04b71b4a22ec547ec981c69b
25 Good Lovin'.flac:89bf166b32a99b1d3c6665a829f3f1c4
26 Brokedown Palace.flac:6c549b0d8150c5257622aa7f71ad70cf
flac-md5
34d9cc5d723590cc2a79e575d5bef049 *01 Alabama Getaway.flac
cc286dd36068c2be1b08e17b02612eae *02 The Promised Land.flac
8f334cfea7b02133b18a95568a2723a7 *03 They Love Each Other.flac
e8d722d100bd773f47224543a47638ea *04 Mama Tried.flac
a454f4c46534eee54dde965d9cf7e727 *05 Mexicali Blues.flac
92447bc3e35ef9851f98c4a115328343 *06 Althea.flac
a255ec00c318e8197f0b4300d1fc9d0d *07 Little Red Rooster.flac
d7b0430bad2792ddd75f363754bce20c *08 Tennessee Jed.flac
e5ec83a9a277dd02d5ba5db8aa3361b9 *09 Far From Me.flac
57e0d03c3653a6d6e8c624b6f6e8050b *10 Lazy Lightning.flac
b1526da2aa6dcc916b1fab49aa61f1a0 *11 Supplication.flac
7008262c755fbba552c5079f5fa739c9 *12 Deal.flac
98ce78fb220e83d54aa3521b493c3fd6 *13 Tuning.flac
58436fe99b60388f2e15ce2993f391a5 *14 Greatest Story Ever Told.flac
580b3942dcc0338064f680158627cf00 *15 Uncle John's Band.flac
01659ab35efdaab57229dacdbf4081cf *16 Lost Sailor.flac
54e6c78e9e00ac64234102cea88c5582 *17 Saint Of Circumstance.flac
0c897bd5df3c3ee6253bc3f383e6a0d5 *18 Comes A Time.flac
5c0273c6219c34141240fbbea4af8e90 *19 Truckin'.flac
7a32166882b3d5dc94657c1cb0944608 *20 Drums.flac
e5dbea0ac9487df0c59a50276525862e *21 Space.flac
e80b9948e54cbd0633edb2be253a7687 *22 The Other One.flac
a53f75e07f00c48b49e8f12c929a725f *23 Stella Blue.flac
e93101d03a6a7a32bf14faaf61d9d799 *24 I Need A Miracle.flac
ba5f2d9a07b5fb8e38d61b55fbc32d13 *25 Good Lovin'.flac
ed2c4e9c9ceb74d0e98908d73b601bc0 *26 Brokedown Palace.flac

Comments
Add Comment
Other Sources (comments)
Recording by Jim Wise:... (3) Audience (unknown equipment... (2) AUD, SBD combo: Set 1:... (0) flac16; Recording by... (0) flac16; Nakamichi... (0) flac16; Recorded By... (0) flac24; Source Info:... (0) flac16/48kHz; Source... (0)
Date User Comment