Browse Collections Artists Sources   Search Dates

Add Show    List Management    Help


Grateful Dead 03/16/93
Capital Centre, Landover, MD
Comments Add Comment    Source Collectors    Add to Collection    Add to Want List    History
Source # 139672 Other Sources
Entered by Matt Vernon
Checksums ffp , flac-md5
Disc Counts 0 / 0
Media Size Compressed: 851.64 MB (893013579 bytes)
Uncompressed: 1.71 GB (1831172440 bytes)
Date Circulated
Date Added
11/01/2017
11/01/2017
Source Summary flac16/48kHz; Source Info: Jim Wise's FOB Audience DAT > Schoeps CMC6/MK4 (hand-held ORTF) > Sonosax SX-M2 > Dat (Sony D10 Pro/48k); Transfer Info: DAT Master (Sony PCM-R500)> Tascam DA-3000> WAV (16-bit/48k)> Adobe Audition 3.0> TLH flac1648 
  Archive
Source Information - Download Text | Download Zip
Grateful Dead
Capital Centre
Landover, MD
Tuesday March 16, 1993

Recording Info:
Source Info:
Jim Wise's FOB Audience DAT > Schoeps CMC6/MK4 (hand-held ORTF) > Sonosax SX-M2 > Dat (Sony D10 Pro/48k)

Transfer Info:
DAT Master (Sony PCM-R500)> Tascam DA-3000> WAV (16-bit/48k)> Adobe Audition 3.0> TLH flac1648

Recorded & Transferred by Jim Wise
Mastered by Scott Clugston
10/31/17

Notes:
-- A Big Thanks to Jim Wise
-- Set 2 is seamless

Set 1:
t01 - Tuning
t02 - Jack Straw
t03 - Row Jimmy
t04 - New Minglewood Blues
t05 - So Many Roads
t06 - Cassidy
t07 - Tennessee Jed ->
t08 - Promised Land

Set 2:
t09 - Tuning
t10 - Scarlet Begonias ->
t11 - Fire On The Mountain
t12 - Man Smart (Woman Smarter)
t13 - Uncle John's Band ->
t14 - Drums ->
t15 - Space ->
t16 - The Last Time ->
t17 - Morning Dew ->
t18 - Sugar Magnolia

Encore:
t19 - U.S. Blues


    length     expanded size    cdr  WAVE problems  fmt   ratio  filename
     1:52.427      21585964 B   cxx   --   ---xx   flac  0.4115  gd93-03-16 t01 Crowd.flac
     7:09.427      82449964 B   cxx   --   ---xx   flac  0.4867  gd93-03-16 t02 Jack Straw.flac
    10:34.733     121868844 B   cxx   --   ---xx   flac  0.4782  gd93-03-16 t03 Row Jimmy.flac
     8:24.867      96934444 B   cxx   --   ---xx   flac  0.4897  gd93-03-16 t04 New Minglewood Blues.flac
     8:03.373      92807724 B   cxx   --   ---xx   flac  0.4487  gd93-03-16 t05 So Many Roads.flac
     7:58.493      91870764 B   cxx   --   ---xx   flac  0.4887  gd93-03-16 t06 Cassidy.flac
     7:52.013      90626604 B   cxx   --   ---xx   flac  0.5099  gd93-03-16 t07 Tennessee Jed.flac
     4:33.040      52423724 B   cxx   --   ---xx   flac  0.5274  gd93-03-16 t08 Promised Land.flac
     4:22.413      50383404 B   cxx   --   ---xx   flac  0.3730  gd93-03-16 t09 Crowd.flac
     7:53.533      90918444 B   cxx   --   ---xx   flac  0.5230  gd93-03-16 t10 Scarlet Begonias.flac
    12:51.120     148055084 B   cxx   --   ---xx   flac  0.5093  gd93-03-16 t11 Fire On The Mountain.flac
     8:32.573      98414124 B   cxx   --   ---xx   flac  0.5351  gd93-03-16 t12 Man Smart (Women Smarter).flac
    13:55.680     160450604 B   cxx   --   ---xx   flac  0.5186  gd93-03-16 t13 Uncle John's Band.flac
    10:05.747     116303404 B   cxx   --   ---xx   flac  0.4187  gd93-03-16 t14 Drums.flac
     9:16.400     106828844 B   cxx   --   ---xx   flac  0.4105  gd93-03-16 t15 Space.flac
     6:35.227      75883564 B   cxx   --   ---xx   flac  0.5270  gd93-03-16 t16 The Last Time.flac
    11:27.320     131965484 B   cxx   --   ---xx   flac  0.4549  gd93-03-16 t17 Morning Dew.flac
    12:01.293     138488364 B   cxx   --   ---xx   flac  0.5308  gd93-03-16 t18 Sugar Magnolia.flac
     5:27.672      62913088 B   cxx   --   ---xx   flac  0.5426  gd93-03-16 t19 US Blues.flac
   158:57.352    1831172440 B                            0.4877  (19 files)

No errors occured.

Show Checksums
ffp
gd93-03-16 t01 Crowd.flac:08ba3032d9a897b921152c92bd883245
gd93-03-16 t02 Jack Straw.flac:ea5e86df346905c69a36ef77492ad8ce
gd93-03-16 t03 Row Jimmy.flac:f2a7d5529e96da391685dad19b70ddec
gd93-03-16 t04 New Minglewood Blues.flac:e3cbe9e76d80243308a35d972e2bb285
gd93-03-16 t05 So Many Roads.flac:b0c1ebcc8ab5c5c11948e4a5ed083fb3
gd93-03-16 t06 Cassidy.flac:a0cec7383c90f1180772ce46730edfef
gd93-03-16 t07 Tennessee Jed.flac:f9560405ddf236427198e382489c7cb1
gd93-03-16 t08 Promised Land.flac:e3c6cb553116cfba0c693a6fae274955
gd93-03-16 t09 Crowd.flac:7276fbf66e23e0e4cc632b84daee54be
gd93-03-16 t10 Scarlet Begonias.flac:0cd8e42fd706511a6b6734eb9bf402a0
gd93-03-16 t11 Fire On The Mountain.flac:399bb33b969785cd2ba994f7ff44edce
gd93-03-16 t12 Man Smart (Women Smarter).flac:eda8c39f00b408ac2bcc43c2a657c716
gd93-03-16 t13 Uncle John's Band.flac:e1e58305cd296a9dc429699a616efa18
gd93-03-16 t14 Drums.flac:c7c02163ca731d76eea99beb48fea1ff
gd93-03-16 t15 Space.flac:cdfcd27ae50628946c9d4dd622cf2111
gd93-03-16 t16 The Last Time.flac:098222b891254b366480fcc79f5ac8b9
gd93-03-16 t17 Morning Dew.flac:5243100cdb2a9b723aa73721f17e81fd
gd93-03-16 t18 Sugar Magnolia.flac:526fcd0c49e7323bbc961c62e94f995b
gd93-03-16 t19 US Blues.flac:6ffb85eecce9678115486d3dd96c4cdc
flac-md5
ad9a3c3a5babbee8557eb827c17a5578 *gd93-03-16 t01 Crowd.flac
f41256231ad96440b591faafd1394678 *gd93-03-16 t02 Jack Straw.flac
e8fa2fb07efbb0c291a96524bf1a4830 *gd93-03-16 t03 Row Jimmy.flac
d147e4e88a40140fefaa2c4df20ecb00 *gd93-03-16 t04 New Minglewood Blues.flac
f279c57196a5d70c577bba39c7233ee2 *gd93-03-16 t05 So Many Roads.flac
063c3e2f12faeb8bd849415a73b110f7 *gd93-03-16 t06 Cassidy.flac
7f59a51a016f591c8c74c6902fdcc92f *gd93-03-16 t07 Tennessee Jed.flac
25b8841b4991fbcf5e5902789fb92cbb *gd93-03-16 t08 Promised Land.flac
8aa12e54cb9dbcc9fbffd6e4fd60be0f *gd93-03-16 t09 Crowd.flac
55de3af4b433721a23a91fdf29403073 *gd93-03-16 t10 Scarlet Begonias.flac
8f9bdab49c6983cbc40305484532779d *gd93-03-16 t11 Fire On The Mountain.flac
2ead3a938d8923ee6fc20216825484c0 *gd93-03-16 t12 Man Smart (Women Smarter).flac
e21ac8b1114dcd78cf2beea901dc65b0 *gd93-03-16 t13 Uncle John's Band.flac
e74a20dd9ca0bc9956fce702f0c7b728 *gd93-03-16 t14 Drums.flac
c6473617abe0730cd66f2db4d75c9dba *gd93-03-16 t15 Space.flac
2eede9ca4d90472f72af864b75c528aa *gd93-03-16 t16 The Last Time.flac
9ab12483e32875d4838eb52564c94045 *gd93-03-16 t17 Morning Dew.flac
66034af54e1f040c81d588e530a0ec0f *gd93-03-16 t18 Sugar Magnolia.flac
f8ddc114483c126f4168a4241a24bb03 *gd93-03-16 t19 US Blues.flac

Comments
Add Comment
Other Sources (comments)
sbd> dat> c> dat> cdr; via... (1) Source: Af: AKG 414's>D... (1) flac16; record: akg... (0) flac16; AKG... (0) flac16; Sennheiser... (0) flac16; Recording... (0) flac16; Matrix 2... (0) DTS-Audio-CD 5.1... (0) flac16/48kHz; 5.1... (0) flac16/48kHz; Set 2... (0)
Date User Comment