Browse Collections Artists Sources   Search Dates

Add Show    List Management    Help


Grateful Dead 03/30/83
Warfield Theater, San Francisco, CA
Comments Add Comment    Source Collectors    Add to Collection    Add to Want List    History
Source # 139681 Other Sources
Entered by Matt Vernon
Checksums ffp , flac-md5
Disc Counts 0 / 0
Media Size
Date Circulated
Date Added

11/02/2017
Source Summary flac16 44.1khz Source Info: Sennheiser 441-> Cassette-> DAT. Transfer Info: Dat (Panasonic SV-3700) -> Marantz CDR-615 -> CD (Late 90's). Extract Wav-> Flac Level 8-> Tagged (16/44.1). Transfers by Pete Ebel. 
  Archive
Source Information - Download Text | Download Zip
Grateful Dead
Warfield Theater - San Francisco - CA
March 30, 1983

Source Info:
Sennheiser 441-> Cassette-> DAT

Transfer Info:
Dat (Panasonic SV-3700) -> Marantz CDR-615 -> CD (Late 90's)
Extract Wav-> Flac Level 8-> Tagged (16/44.1)


Transfers by Pete Ebel
November 1, 2017


Set #1:
01. Bertha
02. Promised Land
03. Dire Wolf
04. Cassidy
05. Peggy' O
06. Mama Tried
07. Mexicali Blues
08. Must've Been The Roses
09. Minglewood Blues
10. China Cat Sunflower
11. I Know You Rider

Set #2:
12. Touch Of Grey
13. Brother Easu
14. Might As Well
15. Playing In The Band
16. Drumz
17. Space
18. Women Are Smarter
19. China Doll
20. Playin' Reprise
21. Sugar Magnolia

Encore:
22. U. S. Blues




SHNTOOL OUTPUT:
    length     expanded size    cdr  WAVE problems  fmt   ratio  filename
     6:52.24       72733292 B   ---   --   ---xx   flac  0.6016  01 Bertha.flac
     3:51.36       40833116 B   ---   --   ---xx   flac  0.6089  02 Promised Land.flac
     3:27.56       36646556 B   ---   --   ---xx   flac  0.5798  03 Dire Wolf.flac
     6:25.25       67972844 B   ---   --   ---xx   flac  0.5702  04 Cassidy.flac
     7:22.26       78029996 B   ---   --   ---xx   flac  0.5516  05 Peggy' O.flac
     2:57.72       31392188 B   ---   --   ---xx   flac  0.5930  06 Mama Tried.flac
     5:06.40       54072524 B   ---   --   ---xx   flac  0.5886  07 Mexicali Blues.flac
     5:30.44       58315532 B   ---   --   ---xx   flac  0.5387  08 Must've Been The Roses.flac
     7:50.55       83037404 B   ---   --   ---xx   flac  0.5650  09 Minglewood Blues.flac
     6:00.73       63675740 B   ---   --   ---xx   flac  0.5753  10 China Cat Sunflower.flac
     5:48.27       61450748 B   ---   --   ---xx   flac  0.5717  11 I Know You Rider.flac
     6:53.04       72862652 B   ---   --   ---xx   flac  0.6145  12 Touch Of Grey.flac
     6:59.49       74026892 B   ---   --   ---xx   flac  0.5750  13 Brother Easu.flac
     4:44.68       50257580 B   ---   --   ---xx   flac  0.5668  14 Might As Well.flac
    13:45.70      145694684 B   ---   --   ---xx   flac  0.5471  15 Playing In The Band.flac
     6:58.40       73829324 B   ---   --   ---xx   flac  0.4943  16 Drumz.flac
    10:57.30      115965404 B   ---   --   ---xx   flac  0.4558  17 Space.flac
     8:55.34       94454012 B   ---   --   ---xx   flac  0.5630  18 Women Are Smarter.flac
     5:06.02       53983148 B   ---   --   ---xx   flac  0.5291  19 China Doll.flac
     4:24.27       46633148 B   ---   --   ---xx   flac  0.5560  20 Playin Reprise.flac
     9:54.00      104781644 B   ---   --   ---xx   flac  0.5798  21 Sugar Magnolia.flac
     4:56.31       52287356 B   ---   --   ---xx   flac  0.4918  22 U.S. Blues.flac
   144:50.08     1532935784 B                            0.5553  (22 files)

Show Checksums
ffp
01 Bertha.flac:0169da943bb80886a53040dce2b98ab9
02 Promised Land.flac:c35762c2b862eb7544d74c877953544e
03 Dire Wolf.flac:bf44c6e6068273e45ac096c1cec62871
04 Cassidy.flac:8c602836269786eba3b0206a248662d9
05 Peggy' O.flac:907108e1804a1bc8316493c81da66826
06 Mama Tried.flac:39be4727fac485baecd899b432191aec
07 Mexicali Blues.flac:7edc2ed0bca30515732f3b4c66097fca
08 Must've Been The Roses.flac:abceeafbeb5bdc9dd77e7ede3f27cad2
09 Minglewood Blues.flac:b61971237cceaa86c5593dfaebfff881
10 China Cat Sunflower.flac:927a75fd9cc93eeb5c333228cf584a3b
11 I Know You Rider.flac:3781c8839e31ed02eb368f78e9c3c8be
12 Touch Of Grey.flac:b56c602c5876624b25c9efa1849e43d9
13 Brother Easu.flac:e00e802a4f0e6b62fd54e13e8057bb99
14 Might As Well.flac:e7291bf0a43050fb404699cc2231c2ea
15 Playing In The Band.flac:57b7d08bb81d2e69583ae2b18797d011
16 Drumz.flac:ac9261038a360edc1cf3df50ae2496c3
17 Space.flac:2b7e465653f4a3bba1ca7b682461da52
18 Women Are Smarter.flac:72beacb36ad6460e4e62eba5f0bdd7e9
19 China Doll.flac:3036bf97c58c4eb3d314b6dfbd0951ab
20 Playin Reprise.flac:6225675908706192885add3feb9d6475
21 Sugar Magnolia.flac:8e36190acdb745ba29cd001cff8d265b
22 U.S. Blues.flac:39e9bd87c04003b2c1469931d666570c
flac-md5
d8e6710ec51c03337d49f6a778ca1779 *01 Bertha.flac
e9b3074ae43153144b28fd0cd8fbc430 *02 Promised Land.flac
55b7bbcaabef69ae0157dec0399aff0e *03 Dire Wolf.flac
fa5b370290d669c8139af2722169c841 *04 Cassidy.flac
d4464cded49ca07a9d411e8d64d1d930 *05 Peggy' O.flac
d067971c9bc65a67bd75431ca4a44ba9 *06 Mama Tried.flac
cd39702983d86bff606a37b0b1ee5beb *07 Mexicali Blues.flac
b8173820a509575664e7c633df358d1b *08 Must've Been The Roses.flac
0f645206e1050f69f7f5f6b3c68f3039 *09 Minglewood Blues.flac
eacecce537c83c24c346204cea5257d1 *10 China Cat Sunflower.flac
6702ac8c4d5c82321081b4e775c9af15 *11 I Know You Rider.flac
fa912093226b4a35269eb78b3690b5d7 *12 Touch Of Grey.flac
cdc39c3ad9d730f2e3612aedd7831c3c *13 Brother Easu.flac
1ad9395377eee19b98742ece4cc3fb88 *14 Might As Well.flac
4dbf251577f5d7a6ab83ddf74e8adc5d *15 Playing In The Band.flac
9017422c8880c4b008c9db1570d89e6a *16 Drumz.flac
fb32513a781e59146272bb1eee6c823d *17 Space.flac
e5986e7cfeaed58fb61ed4faacf160d7 *18 Women Are Smarter.flac
e792837659128b396ca2058e6a9000fc *19 China Doll.flac
2e86e04cbb053f90af4c0ab0cedd5293 *20 Playin Reprise.flac
a21b495a421fd7b00e04273d4b2c20a9 *21 Sugar Magnolia.flac
b930f20550ed0cb83a8470ef254103e2 *22 U.S. Blues.flac

Comments
Add Comment
Other Sources (comments)
SBD>CM>Cassette... (0) flac16; SBD ->... (0) flac16; Set 1 AUD:... (0)
Date User Comment