Browse Collections Artists Sources   Search Dates

Add Show    List Management    Help


Grateful Dead 03/31/93
Nassau Coliseum, Uniondale, NY
Comments Add Comment    Source Collectors    Add to Collection    Add to Want List    History
Source # 139689 Other Sources
Entered by Matt Vernon
Checksums ffp , flac-md5
Disc Counts 0 / 0
Media Size Compressed: 858.66 MB (900371174 bytes)
Uncompressed: 1.55 GB (1667622556 bytes)
Date Circulated
Date Added
11/03/2017
11/03/2017
Source Summary flac16/48kHz; Source Info: Jim Wise's FOB Audience DAT > Schoeps CMC6/MK4 (hand-held ORTF) > Sonosax SX-M2 > Dat (Sony D10 Pro/48k); Transfer Info: DAT Master (Sony PCM-R500)> Tascam DA-3000> WAV (16-bit/48k)> Adobe Audition 3.0> TLH flac1648; Recorded & Transferred by Jim Wise; Mastered by Scott Clugston 
  Archive
Source Information - Download Text | Download Zip
Grateful Dead
Nassau Coliseum
Uniondale, NY
Wednesday March 31, 1993

Recording Info:
Source Info:
Jim Wise's FOB Audience DAT > Schoeps CMC6/MK4 (hand-held ORTF) > Sonosax SX-M2 > Dat (Sony D10 Pro/48k)

Transfer Info:
DAT Master (Sony PCM-R500)> Tascam DA-3000> WAV (16-bit/48k)> Adobe Audition 3.0> TLH flac1648

Recorded & Transferred by Jim Wise
Mastered by Scott Clugston
11/1/17

Notes:
-- A Big Thanks to Jim Wise
-- Standalone Truckin'
-- Set 2 is seamless

Set 1:
t01 - Crowd
t02 - Cold Rain & Snow ->
t03 - Wang Dang Doodle
t04 - Althea
t05 - It's All Over Now
t06 - Row Jimmy
t07 - Let It Grow

Set 2:
t08 - Crowd
t09 - Cumberland Blues
t10 - Truckin'
t11 - Lazy River Road
t12 - Playing In The Band ->
t13 - Uncle John's Band ->
t14 - Drums ->
t15 - Space ->
t16 - I Need A Miracle ->
t17 - Standing On The Moon ->
t18 - Sugar Magnolia
t19 - Encore Break

Encore:
t20 - I Fought The Law


    length     expanded size    cdr  WAVE problems  fmt   ratio  filename
     1:20.907      15534124 B   cxx   --   ---xx   flac  0.3954  gd93-03-31 t01 Crowd.flac
     6:26.480      74204204 B   cxx   --   ---xx   flac  0.5706  gd93-03-31 t02 Cold Rain & Snow.flac
     7:05.320      81661484 B   cxx   --   ---xx   flac  0.5316  gd93-03-31 t03 Wang Dang Doodle.flac
     8:25.573      97070124 B   cxx   --   ---xx   flac  0.5432  gd93-03-31 t04 Althea.flac
     9:07.853     105187884 B   cxx   --   ---xx   flac  0.5396  gd93-03-31 t05 It's All Over Now.flac
    11:01.533     127014444 B   cxx   --   ---xx   flac  0.5413  gd93-03-31 t06 Row Jimmy.flac
    13:40.947     157621804 B   cxx   --   ---xx   flac  0.5549  gd93-03-31 t07 Let It Grow.flac
     3:57.893      45675564 B   cxx   --   ---xx   flac  0.3903  gd93-03-31 t08 Crowd.flac
     6:23.613      73653804 B   cxx   --   ---xx   flac  0.5682  gd93-03-31 t09 Cumberland Blues.flac
     7:30.120      86423084 B   cxx   --   ---xx   flac  0.5803  gd93-03-31 t10 Truckin'.flac
     7:30.453      86487084 B   cxx   --   ---xx   flac  0.5456  gd93-03-31 t11 Lazy River Road.flac
     8:15.520      95139884 B   cxx   --   ---xx   flac  0.5722  gd93-03-31 t12 Playing In The Band.flac
     8:42.053     100234284 B   cxx   --   ---xx   flac  0.5757  gd93-03-31 t13 Uncle John's Band.flac
     8:15.893      95211564 B   cxx   --   ---xx   flac  0.4870  gd93-03-31 t14 Drums.flac
    11:01.600     127027244 B   cxx   --   ---xx   flac  0.4440  gd93-03-31 t15 Space.flac
     4:21.707      50247724 B   cxx   --   ---xx   flac  0.5640  gd93-03-31 t16 I Need A Miracle.flac
     8:35.493      98974764 B   cxx   --   ---xx   flac  0.5407  gd93-03-31 t17 Standing On The Moon.flac
     8:52.040     102151724 B   cxx   --   ---xx   flac  0.6137  gd93-03-31 t18 Sugar Magnolia.flac
     1:25.240      16366124 B   cxx   --   ---xx   flac  0.4369  gd93-03-31 t19 Encore Break.flac
     2:45.290      31735640 B   cxx   --   ---xx   flac  0.6030  gd93-03-31 t20 I Fought The Law.flac
   144:45.530    1667622556 B                            0.5399  (20 files)

No errors occured.



Show Checksums
ffp
gd93-03-31 t01 Crowd.flac:03984b1d8ce8fb7dde9616f1c8ff42f9
gd93-03-31 t02 Cold Rain & Snow.flac:52926c59256ae8d86742f431865473bb
gd93-03-31 t03 Wang Dang Doodle.flac:4f39476eaa84b30a2e51a1a449f153c3
gd93-03-31 t04 Althea.flac:88813c1c0c81c898dc8d0681875d0adc
gd93-03-31 t05 It's All Over Now.flac:9b204f96249717c210af55f1bf2347fb
gd93-03-31 t06 Row Jimmy.flac:fc5ed1246c639f4dde5bb1a1d6dd837d
gd93-03-31 t07 Let It Grow.flac:8920e9f1979ea2c89a6835054cb6d939
gd93-03-31 t08 Crowd.flac:a48a972f6baa5b6d3ba6f01c2a5d3f8b
gd93-03-31 t09 Cumberland Blues.flac:9178c47c4cd069a4bd43ff4dcef43332
gd93-03-31 t10 Truckin'.flac:cf932a9301fb7ac0152d6440a47e1d67
gd93-03-31 t11 Lazy River Road.flac:179611f3fbd282ff07bbc88a27c153cd
gd93-03-31 t12 Playing In The Band.flac:1530bb2875ab233cd7a7a8681debed5a
gd93-03-31 t13 Uncle John's Band.flac:f8d02fcd5a64e4402905cbab2021b67a
gd93-03-31 t14 Drums.flac:c44c8147c9be03c597a2d41ac89df2e8
gd93-03-31 t15 Space.flac:46779bdc9bebdbd957991431eda86500
gd93-03-31 t16 I Need A Miracle.flac:f0f56138d1384af53e2930a943bbfd24
gd93-03-31 t17 Standing On The Moon.flac:1664978d581de2f115684a06ef12eceb
gd93-03-31 t18 Sugar Magnolia.flac:d01c56deb87602ce0a2b3f453f9bad47
gd93-03-31 t19 Encore Break.flac:62099570c2eca2308eb21b2a2749a541
gd93-03-31 t20 I Fought The Law.flac:8e73ebb7e44fa6723e228a2506c18b2c
flac-md5
ad0582bb8972c21419eeaa580fe54a9c *gd93-03-31 t01 Crowd.flac
4697c291729a18fdbc5e40a83899d853 *gd93-03-31 t02 Cold Rain & Snow.flac
aef5c4886172a9b0783ac670c0ee5939 *gd93-03-31 t03 Wang Dang Doodle.flac
e7199c6a81d9d28d58016c2fa169c5ac *gd93-03-31 t04 Althea.flac
e522a1f8e6976ea15c299ae45f21e4c8 *gd93-03-31 t05 It's All Over Now.flac
723a79da6d5b8ab229253635400c6095 *gd93-03-31 t06 Row Jimmy.flac
1212a9c9303cf10582d82d1a46f39fc1 *gd93-03-31 t07 Let It Grow.flac
57a7091efdcdaae7ddd707b4ed150eb3 *gd93-03-31 t08 Crowd.flac
843884a11d6626d23600d061add7bc8c *gd93-03-31 t09 Cumberland Blues.flac
4e9aff9f3c9aea362141e8c6fb8fdf63 *gd93-03-31 t10 Truckin'.flac
ab58c0dececb3799e46f88cd94243c67 *gd93-03-31 t11 Lazy River Road.flac
325537d2dd63079f436a6e9688a9b700 *gd93-03-31 t12 Playing In The Band.flac
2c0c65714a208b291b571db3157777cc *gd93-03-31 t13 Uncle John's Band.flac
4c96a6c7dbc5a63ed7f47f3d7dcbc509 *gd93-03-31 t14 Drums.flac
8d467b7f5a3964d7055dfe944fa8ce0d *gd93-03-31 t15 Space.flac
a042aa8b7ccafe1e4ae318b8b15f1d80 *gd93-03-31 t16 I Need A Miracle.flac
723b8a6251288deb18ad30b27c587099 *gd93-03-31 t17 Standing On The Moon.flac
3a4262826f1a2bc9a058543d0faedbdf *gd93-03-31 t18 Sugar Magnolia.flac
351a87469a1b30c69e7e84453d39dd49 *gd93-03-31 t19 Encore Break.flac
0baa4de896da64203ff760494ecf76ca *gd93-03-31 t20 I Fought The Law.flac

Comments
Add Comment
Other Sources (comments)
AUD(Schoeps CMC... (0) Recording Info: SBD -> Dat... (0) Soundcheck ; *Note* this is... (0) flac16/48; AUD: AKG... (0) flac16; AUD: AKG... (0) flac16; Recording... (0) flac16; Source:... (0) flac16/48kHz;... (0)
Date User Comment