Browse Collections Artists Sources   Search Dates

Add Show    List Management    Help


Grateful Dead 04/01/93
Nassau Coliseum, Uniondale, NY
Comments Add Comment    Source Collectors    Add to Collection    Add to Want List    History
Source # 139690 Other Sources
Entered by Matt Vernon
Checksums ffp , flac-md5
Disc Counts 0 / 0
Media Size Compressed: 902.46 MB (946297219 bytes)
Uncompressed: 1.67 GB (1788606176 bytes)
Date Circulated
Date Added
11/03/2017
11/03/2017
Source Summary flac16/48kHz; Source Info: Jim Wise's FOB Audience DAT > Schoeps CMC6/MK4 (hand-held ORTF) > Sonosax SX-M2 > Dat (Sony D10 Pro/48k); Transfer Info: DAT Master (Sony PCM-R500)> Tascam DA-3000> WAV (16-bit/48k)> Adobe Audition 3.0> TLH flac1648; Recorded & Transferred by Jim Wise; Mastered by Scott Clugston 
  Archive
Source Information - Download Text | Download Zip
Grateful Dead
Nassau Coliseum
Uniondale, NY
Thursday April 1, 1993

Recording Info:
Source Info:
Jim Wise's FOB Audience DAT > Schoeps CMC6/MK4 (hand-held ORTF) > Sonosax SX-M2 > Dat (Sony D10 Pro/48k)

Transfer Info:
DAT Master (Sony PCM-R500)> Tascam DA-3000> WAV (16-bit/48k)> Adobe Audition 3.0> TLH flac1648

Recorded & Transferred by Jim Wise
Mastered by Scott Clugston
11/2/17

Notes:
-- A Big Thanks to Jim Wise
-- Thanks to the folks responsible for shnid096103.akg.andrewf which supplies from 2:46 thru the end of "Liberty"

Set 1:
t01 - Jack Straw
t02 - They Love Each Other
t03 - Minglewood Blues
t04 - Candyman
t05 - Desolation Row
t06 - Stagger Lee
t07 - Eternity
t08 - Liberty

Set 2:
t09 - Crowd
t10 - Aiko Aiko
t11 - Saint Of Circumastance
t12 - Crazy Fingers ->
t13 - Wave To The Wind ->
t14 - Drums ->
t15 - Space ->
t16 - Way To Go Home ->
t17 - Days Between ->
t18 - Turn On Youjr Lovelight
t19 - Encore Break

Encore:
t20 - Rain


    length     expanded size    cdr  WAVE problems  fmt   ratio  filename
     5:24.120      62231084 B   cxx   --   ---xx   flac  0.5557  gd93-04-01 t01 Jack Straw.flac
     7:17.880      84073004 B   cxx   --   ---xx   flac  0.5583  gd93-04-01 t02 They Love Each Other.flac
     8:43.360     100485164 B   cxx   --   ---xx   flac  0.5761  gd93-04-01 t03 Minglewood Blues.flac
     6:55.827      79838764 B   cxx   --   ---xx   flac  0.5606  gd93-04-01 t04 Candyman.flac
    10:07.720     116682284 B   cxx   --   ---xx   flac  0.5488  gd93-04-01 t05 Desolation Row.flac
     6:23.787      73687084 B   cxx   --   ---xx   flac  0.5810  gd93-04-01 t06 Stagger Lee.flac
     9:40.827     111518764 B   cxx   --   ---xx   flac  0.5343  gd93-04-01 t07 Eternity.flac
     7:03.640      81338932 B   cxx   --   ---xx   flac  0.5414  gd93-04-01 t08 Liberty.flac
     2:17.092      26321760 B   cxx   --   ---xx   flac  0.3921  gd93-04-01 t09 Crowd.flac
     8:20.627      96120364 B   cxx   --   ---xx   flac  0.5799  gd93-04-01 t10 Aiko Aiko.flac
     8:07.587      93616684 B   cxx   --   ---xx   flac  0.5752  gd93-04-01 t11 Saint Of Circumstance.flac
     8:47.800     101337644 B   cxx   --   ---xx   flac  0.5241  gd93-04-01 t12 Crazy Fingers.flac
     8:34.173      98721324 B   cxx   --   ---xx   flac  0.5467  gd93-04-01 t13 Wave To The Wind.flac
    17:36.800     202905644 B   cxx   --   ---xx   flac  0.4578  gd93-04-01 t14 Drums.flac
     8:51.253     102000684 B   cxx   --   ---xx   flac  0.4182  gd93-04-01 t15 Space.flac
     7:25.973      85626924 B   cxx   --   ---xx   flac  0.5586  gd93-04-01 t16 Way To Go Home.flac
    10:25.600     120115244 B   cxx   --   ---xx   flac  0.5066  gd93-04-01 t17 Days Between.flac
     6:19.747      72911404 B   cxx   --   ---xx   flac  0.5437  gd93-04-01 t18 Turn On Your Lovelight.flac
     2:02.080      23439404 B   cxx   --   ---xx   flac  0.4046  gd93-04-01 t19 Encore Break.flac
     4:49.760      55634016 B   cxx   --   ---xx   flac  0.5626  gd93-04-01 t20 Rain.flac
   155:15.653    1788606176 B                            0.5291  (20 files)

No errors occured.


Show Checksums
ffp
gd93-04-01 t01 Jack Straw.flac:d943b6524438e9c5371171ce56399842
gd93-04-01 t02 They Love Each Other.flac:3cedffd29abb10051825a8ce67930e80
gd93-04-01 t03 Minglewood Blues.flac:7aedee77754846e999e5d30f302f0642
gd93-04-01 t04 Candyman.flac:37466bd9ca3ddb91b5ac3892b261a4e4
gd93-04-01 t05 Desolation Row.flac:be58db770f239a882f3c98fabe7532c5
gd93-04-01 t06 Stagger Lee.flac:47e2eee4ac0e9b88845cdf951eb8bd03
gd93-04-01 t07 Eternity.flac:79111a322666c6ff9716617f8862e040
gd93-04-01 t08 Liberty.flac:e90547c348abf6a1342ba7a1d295b931
gd93-04-01 t09 Crowd.flac:8472f2b05aa50327d0ce0deea93293f5
gd93-04-01 t10 Aiko Aiko.flac:254c7ce0278125134305997497e69b08
gd93-04-01 t11 Saint Of Circumstance.flac:0ae604ee9e19b8662856c13ca91ed234
gd93-04-01 t12 Crazy Fingers.flac:d715dad1cfcddadd39df296640f59f79
gd93-04-01 t13 Wave To The Wind.flac:5012a0be51d69b9e280777f6238b1d23
gd93-04-01 t14 Drums.flac:2e5de00cf4c6387c203ab7ea72f3d32d
gd93-04-01 t15 Space.flac:733b805a4eacc370bee3cbedc23c445b
gd93-04-01 t16 Way To Go Home.flac:06140f1e15eaa11e7a43eae1783ff2ea
gd93-04-01 t17 Days Between.flac:41fea14132d86e1ee369a9727c2ad885
gd93-04-01 t18 Turn On Your Lovelight.flac:75e7abc8eb50c5c36b42dba888c17120
gd93-04-01 t19 Encore Break.flac:10cf0cdc9e77a6e2099b4e2698de0b86
gd93-04-01 t20 Rain.flac:508555178ac4abf7d7c18efe0dbfece3
flac-md5
1f968ebac5615c036ef67e60fe9f21ae *gd93-04-01 t01 Jack Straw.flac
18642f3972d1ec92607c04da47ba1cc3 *gd93-04-01 t02 They Love Each Other.flac
cf587460c64806fafdd93f7cced20dc4 *gd93-04-01 t03 Minglewood Blues.flac
ea6fe5d04574a9f8bb18dd432e2c3c1d *gd93-04-01 t04 Candyman.flac
19665afc8c6d6fc0346349be48da4a63 *gd93-04-01 t05 Desolation Row.flac
8d82c63276d936ab72ee094ca5be1088 *gd93-04-01 t06 Stagger Lee.flac
daa6936fc2a2fd80234e5a5e64bfa9aa *gd93-04-01 t07 Eternity.flac
8e838715eac81d452920cb1f49aa6a50 *gd93-04-01 t08 Liberty.flac
c548eb8f2e9da1236e2f11aab98056a6 *gd93-04-01 t09 Crowd.flac
7ae85f21cf2e0cb202f4d050cd290f4e *gd93-04-01 t10 Aiko Aiko.flac
28491a7214236515d251807960b35f7e *gd93-04-01 t11 Saint Of Circumstance.flac
1fd14efb85b9912ac8473179d3a5ac1c *gd93-04-01 t12 Crazy Fingers.flac
983d1236fc3f749f98204aa1132a10a5 *gd93-04-01 t13 Wave To The Wind.flac
5fde8895902336d94d566a7721ce832c *gd93-04-01 t14 Drums.flac
7d598a6c5e602cfa112e6371a8a88c42 *gd93-04-01 t15 Space.flac
6ec54b93b64b3d5c46193b544f836096 *gd93-04-01 t16 Way To Go Home.flac
b535c46f22d8566ed34ec333a5d92aeb *gd93-04-01 t17 Days Between.flac
bd195913b350107ffd16546ef2bbc83f *gd93-04-01 t18 Turn On Your Lovelight.flac
448c28be6989a3156dc35f09dafa072e *gd93-04-01 t19 Encore Break.flac
5cd54e5c0b2ddbec2e98de69a439045c *gd93-04-01 t20 Rain.flac

Comments
Add Comment
Other Sources (comments)
B&K 4011 w/balls >... (0) DSBD > C > DAT > CD > EAC >... (3) flac16/48; AUD: AKG... (0) flac16; AUD: AKG... (0) flac16/48kHz;... (0)
Date User Comment