Browse Collections Artists Sources   Search Dates

Add Show    List Management    Help


Grateful Dead 04/02/93
Nassau Coliseum, Uniondale, NY
Comments Add Comment    Source Collectors    Add to Collection    Add to Want List    History
Source # 139691 Other Sources
Entered by Matt Vernon
Checksums flac-md5 , ffp
Disc Counts 0 / 0
Media Size Compressed: 562.45 MB (589776191 bytes)
Uncompressed: 1.09 GB (1170307644 bytes)
Date Circulated
Date Added
11/03/2017
11/03/2017
Source Summary flac16/48kHz; Set 2 Source Info: Jim Wise's FOB Audience DAT > Schoeps CMC6/MK4 (hand-held ORTF) > Sonosax SX-M2 > Dat (Sony D10 Pro/48k); Transfer Info: DAT Master (Sony PCM-R500)> Tascam DA-3000> WAV (16-bit/48k)> Adobe Audition 3.0> TLH flac1648; Recorded & Transferred by Jim Wise; Mastered by Scott Clugston 
  Archive
Source Information - Download Text | Download Zip
Grateful Dead
Nassau Coliseum
Uniondale, NY
Friday April 2, 1993

Recording Info:
Source Info:
Jim Wise's FOB Audience DAT > Schoeps CMC6/MK4 (hand-held ORTF) > Sonosax SX-M2 > Dat (Sony D10 Pro/48k)

Transfer Info:
DAT Master (Sony PCM-R500)> Tascam DA-3000> WAV (16-bit/48k)> Adobe Audition 3.0> TLH flac1648

Recorded & Transferred by Jim Wise
Mastered by Scott Clugston
11/1/17

A Big Thanks to Jim Wise

Set 2:
t01 - Crowd
t02 - Scarlet Begonias ->
t03 - Fire On The Mountain
t04 - Man Smart (Woman Smarter)->
t05 - Terrapin Station ->
t06 - Corrina ->
t07 - Drums ->
t08 - Space ->
t09 - The Last Time ->
t10 - Black Peter ->
t11 - Around & Around ->
t12 - Encore Break
Encore:
t13 - Brokedown Palace



    length     expanded size    cdr  WAVE problems  fmt   ratio  filename
     3:33.573      41006124 B   cxx   --   ---xx   flac  0.3710  gd93-04-02 2nd set t01 Crowd.flac
     9:11.680     105922604 B   cxx   --   ---xx   flac  0.5375  gd93-04-02 2nd set t02 Scarlet Begonias.flac
    11:43.747     135119404 B   cxx   --   ---xx   flac  0.5303  gd93-04-02 2nd set t03 Fire On The Mountain.flac
     6:15.093      72017964 B   cxx   --   ---xx   flac  0.5581  gd93-04-02 2nd set t04 Man Smart (Woman Smarter).flac
    11:29.640     132410924 B   cxx   --   ---xx   flac  0.5327  gd93-04-02 2nd set t05 Terrapin Station.flac
     7:36.000      87552044 B   cxx   --   ---xx   flac  0.5636  gd93-04-02 2nd set t06 Corrina.flac
    14:24.907     166062124 B   cxx   --   ---xx   flac  0.4480  gd93-04-02 2nd set t07 Drums.flac
     7:37.053      87754284 B   cxx   --   ---xx   flac  0.3754  gd93-04-02 2nd set t08 Space.flac
     6:32.573      75374124 B   cxx   --   ---xx   flac  0.5451  gd93-04-02 2nd set t09 The Last Time.flac
     8:13.907      94830124 B   cxx   --   ---xx   flac  0.5104  gd93-04-02 2nd set t10 Black Peter.flac
     8:08.987      93885484 B   cxx   --   ---xx   flac  0.5405  gd93-04-02 2nd set t11 Around & Around.flac
     1:39.480      19100204 B   cxx   --   ---xx   flac  0.4244  gd93-04-02 2nd set t12 Encore Break.flac
     5:08.709      59272236 B   cxx   --   ---xx   flac  0.5098  gd93-04-02 2nd set t13 Brokedown Palace.flac
   101:35.349    1170307644 B                            0.5039  (13 files)

No errors occured.



Show Checksums
flac-md5
a6639971384db0e694851ab38b5b8972 *gd93-04-02 2nd set t01 Crowd.flac
79b56b1b0d54ff32aa092ca637593926 *gd93-04-02 2nd set t02 Scarlet Begonias.flac
ed63da70a914a7134179c5936545f625 *gd93-04-02 2nd set t03 Fire On The Mountain.flac
965403d63fcdf5b07ec07d8ac0c4c65c *gd93-04-02 2nd set t04 Man Smart (Woman Smarter).flac
14e79840af81f8655fd530cb57e8d32c *gd93-04-02 2nd set t05 Terrapin Station.flac
2287c486f28fda0eff7bc0b64438d839 *gd93-04-02 2nd set t06 Corrina.flac
62e02f2a63d654ab2e852e4f80217baa *gd93-04-02 2nd set t07 Drums.flac
40f8e5c1f60d58c2f575c5139b2d63df *gd93-04-02 2nd set t08 Space.flac
1383b96021bb174420508968894e005b *gd93-04-02 2nd set t09 The Last Time.flac
8fa6063fe0dd1cd29eb5161870f7fa67 *gd93-04-02 2nd set t10 Black Peter.flac
b9053958e3ed04d83df13e1ba205c49e *gd93-04-02 2nd set t11 Around & Around.flac
f6fd041b91de160adaa29e1d4ba8da73 *gd93-04-02 2nd set t12 Encore Break.flac
5c08adf5682dd361a52fbeb35f7281c6 *gd93-04-02 2nd set t13 Brokedown Palace.flac
ffp
gd93-04-02 2nd set t01 Crowd.flac:9cc060b341ab7e28cfb171a717972ae6
gd93-04-02 2nd set t02 Scarlet Begonias.flac:8de50c03c68bac2917a4a79fd69b1613
gd93-04-02 2nd set t03 Fire On The Mountain.flac:adb7cd9b04b9e53de099bbcafece83e0
gd93-04-02 2nd set t04 Man Smart (Woman Smarter).flac:05c6495452514c82e4391c971c8639dc
gd93-04-02 2nd set t05 Terrapin Station.flac:a026e64c722c3343557743ef2ec8059c
gd93-04-02 2nd set t06 Corrina.flac:80358579182d9872f8e270280aee1c16
gd93-04-02 2nd set t07 Drums.flac:4eaa513e48ea2a6c1aa083417193a03b
gd93-04-02 2nd set t08 Space.flac:c73bfe03b05a1f039b51a1c36c38511b
gd93-04-02 2nd set t09 The Last Time.flac:41e856709348953e2a47522e797e4834
gd93-04-02 2nd set t10 Black Peter.flac:6dae8fd450df96636b20d55eb0ccca0d
gd93-04-02 2nd set t11 Around & Around.flac:40ca14f5ad2bd9ae03d3a39d9c20448d
gd93-04-02 2nd set t12 Encore Break.flac:2cd2e63b7a4385ab4c5b7e5bb5428528
gd93-04-02 2nd set t13 Brokedown Palace.flac:86ab81c4cf5eab6ba2d7516733218464

Comments
Add Comment
Other Sources (comments)
SBD>DAT>C>DAT>CDR>EAC>WAV>M... (0) AUD(Schoeps CMC-541?s) >... (0) flac16/48kHz;... (0)
Date User Comment