Browse Collections Artists Sources   Search Dates

Add Show    List Management    Help


Grateful Dead 04/04/93
Nassau Coliseum, Uniondale, NY
Comments Add Comment    Source Collectors    Add to Collection    Add to Want List    History
Source # 139692 Other Sources
Entered by Matt Vernon
Checksums ffp , flac-md5
Disc Counts 0 / 0
Media Size Compressed: 495.82 MB (519900139 bytes)
Uncompressed: 974.38 MB (1021711280 bytes)
Date Circulated
Date Added
11/03/2017
11/03/2017
Source Summary flac16/48kHz; Set 2 Source Info: Jim Wise's FOB Audience DAT > Schoeps CMC6/MK4 (hand-held ORTF) > Sonosax SX-M2 > Dat (Sony D10 Pro/48k); Transfer Info: DAT Master (Sony PCM-R500)> Tascam DA-3000> WAV (16-bit/48k)> Adobe Audition 3.0> TLH flac1648; Recorded & Transferred by Jim Wise; Mastered by Scott Clugston 
  Archive
Source Information - Download Text | Download Zip
Grateful Dead
Nassau Coliseum
Uniondale, NY
Sunday April 4, 1993

Recording Info:
Source Info:
Jim Wise's FOB Audience DAT > Schoeps CMC6/MK4 (hand-held ORTF) > Sonosax SX-M2 > Dat (Sony D10 Pro/48k)

Transfer Info:
DAT Master (Sony PCM-R500)> Tascam DA-3000> WAV (16-bit/48k)> Adobe Audition 3.0> TLH flac1648

Recorded & Transferred by Jim Wise
Mastered by Scott Clugston
11/1/17

Notes:
- A Big Thanks to Jim Wise
- "The Other One" themed "Space"

Set 2:
t01 - Crowd
t02 - Eyes Of The World ->
t03 - Samson & Delilah
t04 - Broken Arrow
t05 - Estimated Prophet ->
t06 - Drums ->
t07 - Space ->
t08 - The Other One ->
t09 - Attics Of My Life ->
t10 - Throwing Stones ->
t11 - Not Fade Away ->
t12 - Not Fade Away Chant
Encore:
t13 - Liberty


    length     expanded size    cdr  WAVE problems  fmt   ratio  filename
     0:52.800      10137644 B   cxx   --   ---xx   flac  0.3843  gd93-04-04 2nd set t01 Crowd.flac
     9:13.893     106347564 B   cxx   --   ---xx   flac  0.5150  gd93-04-04 2nd set t02 Eyes Of The World.flac
     8:20.573      96110124 B   cxx   --   ---xx   flac  0.5495  gd93-04-04 2nd set t03 Samson & Delilah.flac
     5:46.307      66490924 B   cxx   --   ---xx   flac  0.5240  gd93-04-04 2nd set t04 Broken Arrow.flac
    13:54.667     160256044 B   cxx   --   ---xx   flac  0.5354  gd93-04-04 2nd set t05 Estimated Prophet.flac
    10:15.440     118164524 B   cxx   --   ---xx   flac  0.4039  gd93-04-04 2nd set t06 Drums.flac
     3:04.573      35438124 B   cxx   --   ---xx   flac  0.3929  gd93-04-04 2nd set t07 Space.flac
     8:14.973      95034924 B   cxx   --   ---xx   flac  0.5308  gd93-04-04 2nd set t08 The Other One.flac
     5:02.853      58147884 B   cxx   --   ---xx   flac  0.4894  gd93-04-04 2nd set t09 Attics Of My Life.flac
     9:08.013     105218604 B   cxx   --   ---xx   flac  0.5512  gd93-04-04 2nd set t10 Throwing Stones.flac
     6:29.160      74718764 B   cxx   --   ---xx   flac  0.5418  gd93-04-04 2nd set t11 Not Fade Away.flac
     2:10.880      25129004 B   cxx   --   ---xx   flac  0.3970  gd93-04-04 2nd set t12 Not Fade Away Chant.flac
     6:07.277      70517152 B   cxx   --   ---xx   flac  0.5499  gd93-04-04 2nd set t13 Liberty.flac
    88:41.410    1021711280 B                            0.5089  (13 files)

No errors occured.




Show Checksums
ffp
gd93-04-04 2nd set t01 Crowd.flac:826a0bd1f1880d31454390a5dc52c890
gd93-04-04 2nd set t02 Eyes Of The World.flac:e0e4afb4aab12f773a9ea1829c581d28
gd93-04-04 2nd set t03 Samson & Delilah.flac:5fadbccc0cddc2d6a7ad586b35feaf5b
gd93-04-04 2nd set t04 Broken Arrow.flac:1edb3257225dbefcb40ce5ca666ddaf3
gd93-04-04 2nd set t05 Estimated Prophet.flac:9eeb0821fc72b70fc069115876061d88
gd93-04-04 2nd set t06 Drums.flac:7d1bbf360238626eda7e8cc42b39d8a8
gd93-04-04 2nd set t07 Space.flac:904d2c1892e927a0cdfcbabb4cd859f7
gd93-04-04 2nd set t08 The Other One.flac:cb9084ec5467d3967c7c38f1bcb61209
gd93-04-04 2nd set t09 Attics Of My Life.flac:cb434b4e382349a65fa8b661a9b89658
gd93-04-04 2nd set t10 Throwing Stones.flac:ad7ff54baa6aa61b7bf5da9568f68f0f
gd93-04-04 2nd set t11 Not Fade Away.flac:19d05701c76ba2de7151eb7a308ba827
gd93-04-04 2nd set t12 Not Fade Away Chant.flac:00983a7825f159528f52dec927a59a36
gd93-04-04 2nd set t13 Liberty.flac:661862d538f60d4a56283b9077265a54
flac-md5
2cc1a0bd2d95b253ee93b36894811409 *gd93-04-04 2nd set t01 Crowd.flac
9730afc7a379cc47dc473f463d1fe175 *gd93-04-04 2nd set t02 Eyes Of The World.flac
1c21eea5d362d6ae5b8dcbd1a01a92c5 *gd93-04-04 2nd set t03 Samson & Delilah.flac
287b79986a936334c88ad36c4241b683 *gd93-04-04 2nd set t04 Broken Arrow.flac
11c031acd3501ee3737d95facc0534ad *gd93-04-04 2nd set t05 Estimated Prophet.flac
62994e91c5c8d7887f6f43105c051e76 *gd93-04-04 2nd set t06 Drums.flac
a19ea13760d210ea3f992e486c0075e2 *gd93-04-04 2nd set t07 Space.flac
6c807ac9bb95d29805b390b3da1c02f7 *gd93-04-04 2nd set t08 The Other One.flac
57e186ffb7a1265b27452b297b1785ad *gd93-04-04 2nd set t09 Attics Of My Life.flac
4d3789c677ba7582cdfb89eeae094a6f *gd93-04-04 2nd set t10 Throwing Stones.flac
f30fa7296d00f66a52d6eeda1dd1b616 *gd93-04-04 2nd set t11 Not Fade Away.flac
a6bfbdb836b5895a0e20cb228df56beb *gd93-04-04 2nd set t12 Not Fade Away Chant.flac
539847d13659bb79b5caea0512196236 *gd93-04-04 2nd set t13 Liberty.flac

Comments
Add Comment
Other Sources (comments)
AUD(Schoeps CMC-541?s) >... (0) Source: Nak... (0) flac16; SBD > DAT >... (0) flac16; AKG... (0) flac16/48; AKG... (0) flac16 Source -... (0)
Date User Comment