Browse Collections Artists Sources   Search Dates

Add Show    List Management    Help


Grateful Dead 10/15/94
Madison Square Garden, New York, NY
Comments Add Comment    Source Collectors    Add to Collection    Add to Want List    History
Source # 139698 Other Sources
Entered by Matt Vernon
Checksums ffp , flac-md5
Disc Counts 0 / 0
Media Size
Uncompressed: 1.65 GB (1770069404 bytes)
Date Circulated
Date Added
11/04/2017
11/04/2017
Source Summary flac16 48khz Source: AKG 414’s > Oade custom preamp > Sony TCD-D10 Pro > Dat (48k). Transfer: DAT > Sony PCM-R500 > Tascam DA-3000> WAV 16/48. Recorded and transferred by Jim Wise. edited and mastered SIRMick. 
  Archive
Source Information - Download Text | Download Zip
Grateful Dead
Madison Square Garden
New York , NY
10/15/1994

Source: AKG 414’s > Oade custom preamp > Sony TCD-D10 Pro > Dat (48k)
Transfer: DAT > Sony PCM-R500 > Tascam DA-3000> WAV 16/48

Set I

01   tuning
02   Shakedown Street
03   Little Red Rooster
04   Stagger Lee
05   Black Throated Wind (1)
06   Just Like Tom Thumb's Blues
07   Candyman
08   Easy Answers >
09   Deal


Set II

01   tuning
02   Here Comes Sunshine
03   Victim Or The Crime >
04   Way To Go Home
05   New Speedway Boogie >
06   Drums >
07   Space >
08   The Last Time >
09   Standing On The Moon >
10    One More Saturday Night
11   ~~encore break~~

encore

12   I Want To Tell You



Comments:

(1) Weir on acoustic guitar


Notes:

- Tape pauses have been smoothed out and several bad mic knocks removed.



Thanks to Jim Wise for taping and transferring.



edited and mastered
SIRMick
November 2017


shntool output:

    length     expanded size    cdr  WAVE problems  fmt   ratio  filename
     0:35.973       6906924 B   cxx   --   ---xx   flac  0.4007  gd1994-10-15s1t01.flac
    15:25.480     177692204 B   cxx   --   ---xx   flac  0.5146  gd1994-10-15s1t02.flac
     7:45.480      89372204 B   cxx   --   ---xx   flac  0.5128  gd1994-10-15s1t03.flac
     8:00.853      92323884 B   cxx   --   ---xx   flac  0.5121  gd1994-10-15s1t04.flac
     6:07.360      70533164 B   cxx   --   ---xx   flac  0.5132  gd1994-10-15s1t05.flac
     5:20.613      61557804 B   cxx   --   ---xx   flac  0.5180  gd1994-10-15s1t06.flac
     6:24.720      73866284 B   cxx   --   ---xx   flac  0.4984  gd1994-10-15s1t07.flac
     6:24.027      73733164 B   cxx   --   ---xx   flac  0.5328  gd1994-10-15s1t08.flac
     9:11.200     105830444 B   cxx   --   ---xx   flac  0.5360  gd1994-10-15s1t09.flac
     1:18.680      15106604 B   cxx   --   ---xx   flac  0.4570  gd1994-10-15s2t01.flac
     6:07.613      70581804 B   cxx   --   ---xx   flac  0.6263  gd1994-10-15s2t02.flac
     9:00.893     103851564 B   cxx   --   ---xx   flac  0.6073  gd1994-10-15s2t03.flac
     6:27.200      74342444 B   cxx   --   ---xx   flac  0.6061  gd1994-10-15s2t04.flac
    10:49.160     124638764 B   cxx   --   ---xx   flac  0.5831  gd1994-10-15s2t05.flac
    12:01.707     138567724 B   cxx   --   ---xx   flac  0.4728  gd1994-10-15s2t06.flac
    13:06.933     151091244 B   cxx   --   ---xx   flac  0.5034  gd1994-10-15s2t07.flac
     6:35.880      76009004 B   cxx   --   ---xx   flac  0.5833  gd1994-10-15s2t08.flac
     9:50.747     113423404 B   cxx   --   ---xx   flac  0.5688  gd1994-10-15s2t09.flac
     5:12.573      60014124 B   cxx   --   ---xx   flac  0.6343  gd1994-10-15s2t10.flac
     2:27.440      28308524 B   cxx   --   ---xx   flac  0.4864  gd1994-10-15s2t11.flac
     5:24.573      62318124 B   cxx   --   ---xx   flac  0.6110  gd1994-10-15s2t12.flac
   153:39.107    1770069404 B                            0.5426  (21 files)

flac fingerprints:

gd1994-10-15s1t01.flac:28e63b494a6a593f8991e81a8c098a27
gd1994-10-15s1t02.flac:671b212c53960e23af72520f85857ff2
gd1994-10-15s1t03.flac:f2e876a4d291af8d6cb08d1b8fc67adf
gd1994-10-15s1t04.flac:1af6ef93011e211de24d0dd997775342
gd1994-10-15s1t05.flac:fb2eec0be4603d3e7eef58da9ab3749a
gd1994-10-15s1t06.flac:4a1fc97c32dc7d8918c3971d1a8179fc
gd1994-10-15s1t07.flac:04e5ef7b2d427f3d5ace4cb3b3335601
gd1994-10-15s1t08.flac:4179a9d43b367f3765c023265735a4dd
gd1994-10-15s1t09.flac:53ef9279e1554d8ff9dc1688d64ffa0a
gd1994-10-15s2t01.flac:71c41b39c4feefd96c58a03d23c90d36
gd1994-10-15s2t02.flac:e669911d7c5c1798f68d67a5f101cb9f
gd1994-10-15s2t03.flac:d3349dbce494112f8d954d268423dfee
gd1994-10-15s2t04.flac:0e4da9166471f83f5e68819e8ef541f1
gd1994-10-15s2t05.flac:dfd2b8f6700351c87f7cb05f791e1bf5
gd1994-10-15s2t06.flac:f1cd4205f072a0fd6b563cfa1f5e4ced
gd1994-10-15s2t07.flac:4bfcbab472a1235b889369aa70d2248d
gd1994-10-15s2t08.flac:0a908006f8691fe0e2fb3452931b611a
gd1994-10-15s2t09.flac:4d9531975ab1359dc94a523a689b4d28
gd1994-10-15s2t10.flac:a98bc174cb6957feea54cf3dc3e85b58
gd1994-10-15s2t11.flac:ecb6ba36ff50d165656e8c736ece9807
gd1994-10-15s2t12.flac:de82ffbed5e00171040a3a5661629e7d




Show Checksums
ffp
gd1994-10-15s1t01.flac:28e63b494a6a593f8991e81a8c098a27
gd1994-10-15s1t02.flac:671b212c53960e23af72520f85857ff2
gd1994-10-15s1t03.flac:f2e876a4d291af8d6cb08d1b8fc67adf
gd1994-10-15s1t04.flac:1af6ef93011e211de24d0dd997775342
gd1994-10-15s1t05.flac:fb2eec0be4603d3e7eef58da9ab3749a
gd1994-10-15s1t06.flac:4a1fc97c32dc7d8918c3971d1a8179fc
gd1994-10-15s1t07.flac:04e5ef7b2d427f3d5ace4cb3b3335601
gd1994-10-15s1t08.flac:4179a9d43b367f3765c023265735a4dd
gd1994-10-15s1t09.flac:53ef9279e1554d8ff9dc1688d64ffa0a
gd1994-10-15s2t01.flac:71c41b39c4feefd96c58a03d23c90d36
gd1994-10-15s2t02.flac:e669911d7c5c1798f68d67a5f101cb9f
gd1994-10-15s2t03.flac:d3349dbce494112f8d954d268423dfee
gd1994-10-15s2t04.flac:0e4da9166471f83f5e68819e8ef541f1
gd1994-10-15s2t05.flac:dfd2b8f6700351c87f7cb05f791e1bf5
gd1994-10-15s2t06.flac:f1cd4205f072a0fd6b563cfa1f5e4ced
gd1994-10-15s2t07.flac:4bfcbab472a1235b889369aa70d2248d
gd1994-10-15s2t08.flac:0a908006f8691fe0e2fb3452931b611a
gd1994-10-15s2t09.flac:4d9531975ab1359dc94a523a689b4d28
gd1994-10-15s2t10.flac:a98bc174cb6957feea54cf3dc3e85b58
gd1994-10-15s2t11.flac:ecb6ba36ff50d165656e8c736ece9807
gd1994-10-15s2t12.flac:de82ffbed5e00171040a3a5661629e7d
flac-md5
cf0f43be2cad431013b252cf1f82d45f *gd1994-10-15s1t01.flac
4ff0382dbfb2ce09118a07116fb3402f *gd1994-10-15s1t02.flac
7203bd83b396c3f8d790cac009786073 *gd1994-10-15s1t03.flac
a3d43f9fb3257b9b68f810b1f52037c5 *gd1994-10-15s1t04.flac
2698249e5d17d2d2c9a201e834c087ad *gd1994-10-15s1t05.flac
459f2f64685c219e44824f4052bdb0fd *gd1994-10-15s1t06.flac
f1972f697323f84703f5a3e30e456bc7 *gd1994-10-15s1t07.flac
c8099af902f627bd2b9325d7c7c82cfb *gd1994-10-15s1t08.flac
49fa94f223b557c93b7e1088634bc6fe *gd1994-10-15s1t09.flac
ca2729bc9b1ffc6829198f69d593b574 *gd1994-10-15s2t01.flac
c6a025e8b3f897328e07dd1ec70fb24d *gd1994-10-15s2t02.flac
8ce8a05410dd93fd89938dcc633a4e5f *gd1994-10-15s2t03.flac
305c0fb4ce7fa1d3e1c5e0df3c3d08f3 *gd1994-10-15s2t04.flac
76687168b28b8232b245c6249ca0eb1f *gd1994-10-15s2t05.flac
1034aaacc5f33485543942cce5120a0d *gd1994-10-15s2t06.flac
bee6decd1962a94573136830149c73a5 *gd1994-10-15s2t07.flac
d903c4fe24a6d568e125cba215d2b38d *gd1994-10-15s2t08.flac
33cabc97d1c29cfd8826fa004d3de1b4 *gd1994-10-15s2t09.flac
af1484cd97fef7ea431f7d4cd8e6e9f2 *gd1994-10-15s2t10.flac
1db850b009270d21e6d260156d9f40b2 *gd1994-10-15s2t11.flac
49b4a0ef0887da3484c7f1ef9c7fa148 *gd1994-10-15s2t12.flac

Comments
Add Comment
Other Sources (comments)
Nak 300 Shotguns> Awia DAT>... (0) set 1; SBD (FM GDH)> DAT>... (0) flac16; SBD> Dat>... (0) SBD -> Dat -> Sonic... (0) flac16; Recorded FOB... (0) flac16; Source: aud... (0) flac16;... (0) flac16; SBD/AUD... (0) flac16/48kHz; Set 1... (0)
Date User Comment