Browse Collections Artists Sources   Search Dates

Add Show    List Management    Help


Phil Lesh & Friends 10/31/17
Capitol Theater, Port Chester, NY
Comments Add Comment    Source Collectors    Add to Collection    Add to Want List    History
Source # 139711 Other Sources
Entered by Matt Vernon
Checksums ffp , flac-md5.md5
Disc Counts 0 / 0
Media Size
Date Circulated
Date Added

11/04/2017
Source Summary flac16 44.1khz Neumann KMR-82i shotguns > Oade M-248 > Sound Devices 722 > WAV 2448. Mics on 7-foot stand, front of OTS area, recording by Jon Pasternak. WAV 2448 > Wavelab > CD-Wave (24bit) > R8Brain > TLH > FLAC 1644 tagged. 
  Archive
Source Information - Download Text | Download Zip
PHIL LESH & TERRAPIN FAMILY BAND
Capitol Theater
Port Chester NY
10-31-2017

16bit/44.1kHz file-set

s1t01 crowd/intro
s1t02 Golden Road to Unlimited Devotion
s1t03 Stagger Lee
s1t04 How Sweet It Is
s1t05 The Mountain Song
s1t06 Candyman
s1t07 Tore Up Over You
s1t08 Old Man
s1t09 The Apartment Song
s1t10 Sugar Magnolia

s2t01 crowd/intro
s2t02 Werewolves of London
s2t03 Love the One You're With
s2t04 Monster Mash
s2t05 Fire on the Mountain
s2t06 Sugaree
s2t07 Santiago
s2t08 Convergence
s2t09 La Malanga
s2t10 Bad Moon Rising
s2t11 Playin' in the Band
s2t12 Mountains of the Moon
s2t13 Uncle John's Band
s2t14 phil raps for Cody
s2t15 Samson & Delilah

Neumann KMR-82i shotguns > Oade M-248 > Sound Devices 722 > WAV 2448.
Mics on 7-foot stand, front of OTS area, recording by Jon Pasternak.
WAV 2448 > Wavelab > CD-Wave (24bit) > R8Brain > TLH > FLAC 1644 tagged.

The Musicians:
Rob Barraco
Nicki Bluhm
Ross James
Alex Koford
Grahame Lesh
Phil Lesh
Robert Randolph
Guests in the Second Set:
Preservation Hall Jazz Band

faca207af92a45f0b918745bb7270422 *pl2017-10-31s1t01.flac
f13403d3b26b17757b6ae619747400f0 *pl2017-10-31s1t02.flac
bc7a0b6cd257b19822ba3f8d5bd06591 *pl2017-10-31s1t03.flac
55e725c7128a5ca964e2eb29d44935d0 *pl2017-10-31s1t04.flac
8ab80135a62128180f03a43765552a03 *pl2017-10-31s1t05.flac
d4529fb408f1934475aee554830b00bc *pl2017-10-31s1t06.flac
2c88b0670a8cf73fa9dce9cd0a10cedd *pl2017-10-31s1t07.flac
395c9aaa41dfdbcc644fa6fa19f52e3c *pl2017-10-31s1t08.flac
6bceaf74ed381d7dc1084adeb98ea087 *pl2017-10-31s1t09.flac
d4f1e21cc7b10af94a7b81b8c9094679 *pl2017-10-31s1t10.flac
76e791b2ceeb41b2788836a2d26f07b8 *pl2017-10-31s2t01.flac
94c36fdb29e2aa29e9623d3090a411c9 *pl2017-10-31s2t02.flac
0ae90b5eca30ce3390dd127ddc574ef6 *pl2017-10-31s2t03.flac
acfb4eacbdc805a222fbe314ee257912 *pl2017-10-31s2t04.flac
0ab7b01b80ae886047ceceb2ecf5b383 *pl2017-10-31s2t05.flac
f9e9025b41dfde44ae5b0341896af4bd *pl2017-10-31s2t06.flac
4546945936b82b81b9c3f422d69282f7 *pl2017-10-31s2t07.flac
a0ad3e9f95cc91b799633a36b6bfab44 *pl2017-10-31s2t08.flac
5c53e28fa03b9d1da1c4a3bb6ab0e664 *pl2017-10-31s2t09.flac
d4dd98dab07d4d7a878504426b917312 *pl2017-10-31s2t10.flac
cf020bc67207a9f293c70670ca3b1f25 *pl2017-10-31s2t11.flac
64926f6ae5cf8cf4510726de4a3ad37a *pl2017-10-31s2t12.flac
ec5a986c6a8acf0f1bf89799ef85850f *pl2017-10-31s2t13.flac
7cfe7e09ccf048dcc81c4f24055e88f1 *pl2017-10-31s2t14.flac
f1cb41f7d585f7e38be2716d96668ae6 *pl2017-10-31s2t15.flac

pl2017-10-31s1t01.flac:48287e44c0e4b62e9a0cb82fce1d6a76
pl2017-10-31s1t02.flac:0ac88b3e98115996e8264d41f07831c4
pl2017-10-31s1t03.flac:365dfaa0c26af7d18ea27824d3037837
pl2017-10-31s1t04.flac:3abacd3717c4230ce6c5b4e13eb5092c
pl2017-10-31s1t05.flac:7019d061a2a0a0cc23f8f6f917fa4310
pl2017-10-31s1t06.flac:342d8b081ed1d5c08b8fbd2a0af65fd8
pl2017-10-31s1t07.flac:13d652db87c400d48a13d8a9dced15a3
pl2017-10-31s1t08.flac:476532b3d39f6851a6d0b437fec000a4
pl2017-10-31s1t09.flac:5197723c9d843cf7e1935306d7673641
pl2017-10-31s1t10.flac:d46bae04305066a940c4ad3563ae44c6
pl2017-10-31s2t01.flac:91c8927935055c8e1a7f2ebe61d08313
pl2017-10-31s2t02.flac:80313f56833ed4c3ece01c0981812b27
pl2017-10-31s2t03.flac:a9ad60883f1936f766566ed5db5c7b5b
pl2017-10-31s2t04.flac:3a04754a0841c59ef9ab6c2d634fdf82
pl2017-10-31s2t05.flac:5fad13c8534a486083062d52e364f327
pl2017-10-31s2t06.flac:5690bc99c0396644caaf80cd7f3291b3
pl2017-10-31s2t07.flac:ff3f199ae79c9d0b213174ce910e1128
pl2017-10-31s2t08.flac:c0cfb9e6c38339aca98d9ef96997e31a
pl2017-10-31s2t09.flac:1af8bf584c77a7e65e8fc23883f412d2
pl2017-10-31s2t10.flac:7ef40f439bb2000d4c863f2bf78e532a
pl2017-10-31s2t11.flac:37c40b64e60afebb298c050e86e12a22
pl2017-10-31s2t12.flac:b8b5cf67223359d605bcef2c08a77eb7
pl2017-10-31s2t13.flac:19e4c173a9900ebef2805f97b49ee915
pl2017-10-31s2t14.flac:6f8f0ee472bc17285fea3781e7b02942
pl2017-10-31s2t15.flac:82ba302e954d84c64cc5c575f5dc1175

    length     expanded size    cdr  WAVE problems  fmt   ratio  filename
     2:03.15       21732524 B   ---   --   ---xx   flac  0.4563  pl2017-10-31s1t01.flac
     7:28.32       79102508 B   ---   --   ---xx   flac  0.5422  pl2017-10-31s1t02.flac
     7:20.73       77787740 B   ---   --   ---xx   flac  0.5410  pl2017-10-31s1t03.flac
     8:24.24       88962092 B   ---   --   ---xx   flac  0.5230  pl2017-10-31s1t04.flac
    13:17.20      140637884 B   ---   --   ---xx   flac  0.5235  pl2017-10-31s1t05.flac
     8:07.12       85935068 B   ---   --   ---xx   flac  0.4648  pl2017-10-31s1t06.flac
     6:39.62       70529468 B   ---   --   ---xx   flac  0.5501  pl2017-10-31s1t07.flac
     7:51.48       83197340 B   ---   --   ---xx   flac  0.4699  pl2017-10-31s1t08.flac
     2:34.59       27304412 B   ---   --   ---xx   flac  0.5504  pl2017-10-31s1t09.flac
     8:27.39       89526572 B   ---   --   ---xx   flac  0.5697  pl2017-10-31s1t10.flac
     1:46.59       18837212 B   ---   --   ---xx   flac  0.4735  pl2017-10-31s2t01.flac
     8:36.02       91027148 B   ---   --   ---xx   flac  0.5579  pl2017-10-31s2t02.flac
     5:07.32       54230108 B   ---   --   ---xx   flac  0.5673  pl2017-10-31s2t03.flac
     7:07.69       75485132 B   ---   --   ---xx   flac  0.5341  pl2017-10-31s2t04.flac
    10:53.60      115330364 B   ---   --   ---xx   flac  0.5465  pl2017-10-31s2t05.flac
    14:23.68      152393180 B   ---   --   ---xx   flac  0.5463  pl2017-10-31s2t06.flac
     7:56.28       84032300 B   ---   --   ---xx   flac  0.6001  pl2017-10-31s2t07.flac
     7:36.37       80525468 B   ---   --   ---xx   flac  0.5409  pl2017-10-31s2t08.flac
     5:00.45       53025884 B   ---   --   ---xx   flac  0.5516  pl2017-10-31s2t09.flac
     8:55.12       94402268 B   ---   --   ---xx   flac  0.4754  pl2017-10-31s2t10.flac
    10:22.70      109885484 B   ---   --   ---xx   flac  0.5320  pl2017-10-31s2t11.flac
    12:37.33      133612460 B   ---   --   ---xx   flac  0.4760  pl2017-10-31s2t12.flac
    10:55.62      115687868 B   ---   --   ---xx   flac  0.5126  pl2017-10-31s2t13.flac
     2:50.32       30063308 B   ---   --   ---xx   flac  0.4121  pl2017-10-31s2t14.flac
     7:27.49       78966092 B   ---   --   ---xx   flac  0.5287  pl2017-10-31s2t15.flac
   193:53.67     2052219884 B                            0.5261  (25 files)

No errors occured.

Show Checksums
ffp
pl2017-10-31s1t01.flac:48287e44c0e4b62e9a0cb82fce1d6a76
pl2017-10-31s1t02.flac:0ac88b3e98115996e8264d41f07831c4
pl2017-10-31s1t03.flac:365dfaa0c26af7d18ea27824d3037837
pl2017-10-31s1t04.flac:3abacd3717c4230ce6c5b4e13eb5092c
pl2017-10-31s1t05.flac:7019d061a2a0a0cc23f8f6f917fa4310
pl2017-10-31s1t06.flac:342d8b081ed1d5c08b8fbd2a0af65fd8
pl2017-10-31s1t07.flac:13d652db87c400d48a13d8a9dced15a3
pl2017-10-31s1t08.flac:476532b3d39f6851a6d0b437fec000a4
pl2017-10-31s1t09.flac:5197723c9d843cf7e1935306d7673641
pl2017-10-31s1t10.flac:d46bae04305066a940c4ad3563ae44c6
pl2017-10-31s2t01.flac:91c8927935055c8e1a7f2ebe61d08313
pl2017-10-31s2t02.flac:80313f56833ed4c3ece01c0981812b27
pl2017-10-31s2t03.flac:a9ad60883f1936f766566ed5db5c7b5b
pl2017-10-31s2t04.flac:3a04754a0841c59ef9ab6c2d634fdf82
pl2017-10-31s2t05.flac:5fad13c8534a486083062d52e364f327
pl2017-10-31s2t06.flac:5690bc99c0396644caaf80cd7f3291b3
pl2017-10-31s2t07.flac:ff3f199ae79c9d0b213174ce910e1128
pl2017-10-31s2t08.flac:c0cfb9e6c38339aca98d9ef96997e31a
pl2017-10-31s2t09.flac:1af8bf584c77a7e65e8fc23883f412d2
pl2017-10-31s2t10.flac:7ef40f439bb2000d4c863f2bf78e532a
pl2017-10-31s2t11.flac:37c40b64e60afebb298c050e86e12a22
pl2017-10-31s2t12.flac:b8b5cf67223359d605bcef2c08a77eb7
pl2017-10-31s2t13.flac:19e4c173a9900ebef2805f97b49ee915
pl2017-10-31s2t14.flac:6f8f0ee472bc17285fea3781e7b02942
pl2017-10-31s2t15.flac:82ba302e954d84c64cc5c575f5dc1175
flac-md5.md5
faca207af92a45f0b918745bb7270422 *pl2017-10-31s1t01.flac
f13403d3b26b17757b6ae619747400f0 *pl2017-10-31s1t02.flac
bc7a0b6cd257b19822ba3f8d5bd06591 *pl2017-10-31s1t03.flac
55e725c7128a5ca964e2eb29d44935d0 *pl2017-10-31s1t04.flac
8ab80135a62128180f03a43765552a03 *pl2017-10-31s1t05.flac
d4529fb408f1934475aee554830b00bc *pl2017-10-31s1t06.flac
2c88b0670a8cf73fa9dce9cd0a10cedd *pl2017-10-31s1t07.flac
395c9aaa41dfdbcc644fa6fa19f52e3c *pl2017-10-31s1t08.flac
6bceaf74ed381d7dc1084adeb98ea087 *pl2017-10-31s1t09.flac
d4f1e21cc7b10af94a7b81b8c9094679 *pl2017-10-31s1t10.flac
76e791b2ceeb41b2788836a2d26f07b8 *pl2017-10-31s2t01.flac
94c36fdb29e2aa29e9623d3090a411c9 *pl2017-10-31s2t02.flac
0ae90b5eca30ce3390dd127ddc574ef6 *pl2017-10-31s2t03.flac
acfb4eacbdc805a222fbe314ee257912 *pl2017-10-31s2t04.flac
0ab7b01b80ae886047ceceb2ecf5b383 *pl2017-10-31s2t05.flac
f9e9025b41dfde44ae5b0341896af4bd *pl2017-10-31s2t06.flac
4546945936b82b81b9c3f422d69282f7 *pl2017-10-31s2t07.flac
a0ad3e9f95cc91b799633a36b6bfab44 *pl2017-10-31s2t08.flac
5c53e28fa03b9d1da1c4a3bb6ab0e664 *pl2017-10-31s2t09.flac
d4dd98dab07d4d7a878504426b917312 *pl2017-10-31s2t10.flac
cf020bc67207a9f293c70670ca3b1f25 *pl2017-10-31s2t11.flac
64926f6ae5cf8cf4510726de4a3ad37a *pl2017-10-31s2t12.flac
ec5a986c6a8acf0f1bf89799ef85850f *pl2017-10-31s2t13.flac
7cfe7e09ccf048dcc81c4f24055e88f1 *pl2017-10-31s2t14.flac
f1cb41f7d585f7e38be2716d96668ae6 *pl2017-10-31s2t15.flac

Comments
Add Comment
Other Sources (comments)
flac24 Source: Aud... (0) flac16 Source: Aud... (0) flac24 48khz ... (0)
Date User Comment