Browse Collections Artists Sources   Search Dates

Add Show    List Management    Help


Grateful Dead 07/20/94
Deer Creek Music Center, Noblesville, IN
Comments Add Comment    Source Collectors    Add to Collection    Add to Want List    History
Source # 139713 Other Sources
Entered by Matt Vernon
Checksums ffp , flac-md5
Disc Counts 0 / 0
Media Size
Date Circulated
Date Added

11/05/2017
Source Summary flac16/44.1 Source Info: TS Beyer CMC 101 (Omni's)-> Casio DA-7-> DAT. Transfer Info: Dat (Panasonic SV-3700) -> Marantz CDR-615 -> CD (Late 90's) Extract Wav-> Flac Level 8-> Tagged (16/44.1). Taped & Transfers by Pete Ebel 
  Archive
Source Information - Download Text | Download Zip
Grateful Dead
Deer Creek - Noblesville - IN
July 20, 1994

Source Info:
TS Beyer CMC 101 (Omni's)-> Casio DA-7-> DAT

Transfer Info:
Dat (Panasonic SV-3700) -> Marantz CDR-615 -> CD (Late 90's)
Extract Wav-> Flac Level 8-> Tagged (16/44.1)


Taped & Transfers by Pete Ebel
November 3, 2017


Notes:
Set #2 is Seemless
*  First Childhoods End
** First Matilda



Set #1:
01. Feel's Like A Stranger
02. Peggy' O
03. Beat It On Down The Line
04. High Time
05. Memphis Blues
06. Childhoods End *
07. Don't Ease Me In

Set #2:
08. Box Of Rain
09. Samba In The Rain
10. Look's Like Rain
11. Here Comes Sunshine
12. Corrina
13. Matilda **
14. Drumz
15. Space
16. Uncle John's Band
17. I Need A Miracle
18. Morning Dew

Encore:
19. Johnny B. Goode




SHNTOOL OUTPUT:
    length     expanded size    cdr  WAVE problems  fmt   ratio  filename
    10:02.30      106263404 B   ---   --   ---xx   flac  0.5208  01 Feel's Like A Stranger.flac
     6:31.64       69122972 B   ---   --   ---xx   flac  0.4813  02 Peggy' O.flac
     3:30.44       37147532 B   ---   --   ---xx   flac  0.5593  03 Beat It On Down The Line.flac
     8:23.53       88853900 B   ---   --   ---xx   flac  0.4566  04 High Time.flac
     9:25.22       99717788 B   ---   --   ---xx   flac  0.5201  05 Memphis Blues.flac
     4:22.70       46381484 B   ---   --   ---xx   flac  0.5257  06 Childhoods End.flac
     3:15.07       34414508 B   ---   --   ---xx   flac  0.5409  07 Don't Ease Me In.flac
     6:05.50       64503644 B   ---   --   ---xx   flac  0.4915  08 Box Of Rain.flac
     8:12.45       86894684 B   ---   --   ---xx   flac  0.4990  09 Samba In The Rain.flac
     9:15.14       97934972 B   ---   --   ---xx   flac  0.4895  10 Look's Like Rain.flac
     6:16.72       66495788 B   ---   --   ---xx   flac  0.5232  11 Here Comes Sunshine.flac
     9:58.55      105616604 B   ---   --   ---xx   flac  0.5255  12 Corrina.flac
     6:23.41       67657676 B   ---   --   ---xx   flac  0.4960  13 Matilda.flac
    13:54.57      147251708 B   ---   --   ---xx   flac  0.4493  14 Drumz.flac
    11:35.06      122612156 B   ---   --   ---xx   flac  0.3711  15 Space.flac
    10:26.61      110569916 B   ---   --   ---xx   flac  0.5011  16 Uncle John's Band.flac
     4:42.18       49787180 B   ---   --   ---xx   flac  0.5085  17 I Need A Miracle.flac
    13:56.71      147637436 B   ---   --   ---xx   flac  0.4566  18 Morning Dew.flac
     5:15.24       55622492 B   ---   --   ---xx   flac  0.4927  19 Johnny B. Goode.flac
   151:35.54     1604485844 B                            0.4854  (19 files)

Show Checksums
ffp
01 Feel's Like A Stranger.flac:55e7bc2bd299018b38dda865703b1571
02 Peggy' O.flac:a6d66806f115f8d889b2ae9c9770de56
03 Beat It On Down The Line.flac:0441b39dc197dcadd118f3779a461a01
04 High Time.flac:7b9460f445428f866cf48bb8d67a8e00
05 Memphis Blues.flac:01eb63088cb17b29ebadf4dd72c31ab2
06 Childhoods End.flac:03fdc4839bca700b18fc38b908550563
07 Don't Ease Me In.flac:d2b2c7a4fce6e3dd6b56d7b156dc478f
08 Box Of Rain.flac:b9238f4a14f980a7975c6fe58c21edba
09 Samba In The Rain.flac:21cdb9aec0b66c1511e570296fdc90ff
10 Look's Like Rain.flac:50e65beb14c2200b76bf22cfe03b9410
11 Here Comes Sunshine.flac:fe97911c9c95a32e989daa8177e05596
12 Corrina.flac:061984fe9abc7f2c75ce54074220c826
13 Matilda.flac:83ecfdecba63cd3c61c551b22663307e
14 Drumz.flac:c10bea8183761f1cfeae52942c99ffdd
15 Space.flac:309a07253aec38b2fd356cd72d688531
16 Uncle John's Band.flac:d048b3aaf0b6fd0358c6aba414f45a61
17 I Need A Miracle.flac:df21263837d9b0b06bdef95dc5344b6d
18 Morning Dew.flac:663db02e09a0c6bfd16be9df82370bd9
19 Johnny B. Goode.flac:8718969a55d97c9d160b8dcbe02fd005
flac-md5
f23683c6373292d05f71c6461b57f45b *01 Feel's Like A Stranger.flac
94e6f3ac1750939c0fb22f089947d299 *02 Peggy' O.flac
e82732b58d5803e2007e0df78cce4388 *03 Beat It On Down The Line.flac
bbad65967d1bba4a4e95e189bce14728 *04 High Time.flac
56ea470a98d91899913ad08ae5cc24a8 *05 Memphis Blues.flac
b8bf0f31e626dec3a2987c623859dd2d *06 Childhoods End.flac
d2d5e3931eecce46c5c2d467e3e301ac *07 Don't Ease Me In.flac
db9c2889be95208f027895b87c699c30 *08 Box Of Rain.flac
77c6bb6a7b14e7fbcda6f88d461110e4 *09 Samba In The Rain.flac
d7a3d1004114ba952be053997484d6c2 *10 Look's Like Rain.flac
d1d1ed6ccda753996699a6391bed977f *11 Here Comes Sunshine.flac
65e759abed9a4084a6faba673612e04a *12 Corrina.flac
ec2fb0199f8ac60431743e1d27341f5d *13 Matilda.flac
83b1d47046c06b50efb379f527c74eb8 *14 Drumz.flac
f37311eb0e48c2d84f19d5d7d75dd4a4 *15 Space.flac
850284425bfa159f9a3dd2f9f7c6bdee *16 Uncle John's Band.flac
b47eb936f6f8a72d6f29d12ee8d36782 *17 I Need A Miracle.flac
669c85ac1b5795d90374cf1965f39c5d *18 Morning Dew.flac
b67ddfcc07cd5856ad3a40c620346975 *19 Johnny B. Goode.flac

Comments
Add Comment
Other Sources (comments)
SBD> DAT> WAV> CDR> WAV>... (5) Source: A: Audio Technica... (1) flac16; Schoeps... (0) flac16; Taper: Greg... (0) flac16; Source:... (0) flac16/48kHz; taper... (1)
Date User Comment