Browse Collections Artists Sources   Search Dates

Add Show    List Management    Help


Grateful Dead 07/21/94
Deer Creek Music Center, Noblesville, IN
Comments Add Comment    Source Collectors    Add to Collection    Add to Want List    History
Source # 139714 Other Sources
Entered by Matt Vernon
Checksums ffp , flac-md5
Disc Counts 0 / 0
Media Size
Date Circulated
Date Added

11/05/2017
Source Summary flac16/44.1 Source Info: TS Beyer CMC 101 (Omni's)-> Casio DA-7-> DAT. Transfer Info: Dat (Panasonic SV-3700) -> Marantz CDR-615 -> CD (Late 90's). Extract Wav-> Flac Level 8-> Tagged (16/44.1). Taped & Transfers by Pete Ebel 
  Archive
Source Information - Download Text | Download Zip
Grateful Dead
Deer Creek - Noblesville - IN
July 21, 1994

Source Info:
TS Beyer CMC 101 (Omni's)-> Casio DA-7-> DAT

Transfer Info:
Dat (Panasonic SV-3700) -> Marantz CDR-615 -> CD (Late 90's)
Extract Wav-> Flac Level 8-> Tagged (16/44.1)


Taped & Transfers by Pete Ebel
November 3, 2017


Notes:
Set #2 is Seemless


Set #1:
01. Touch Of Grey
02. Greatest Story Ever Told
03. Jack A Roe
04. The Same Thing
05. Stagger Lee
06. Me & My Uncle
07. Mexicali Blues
08. Ramble On Rose
09. Music Never Stopped

Set #2:
10. Women Are Smarter
11. If The Show Fits
12. Long Way To Go Home
13. Help On The Way
14. Slip Knot!
15. Franklins Tower
16. Drumz
17. Space
18. All A Long The Watchtower
19. The Days Between
20. Good Lovin'

Encore:
21. Liberty




SHNTOOL OUTPUT:
    length     expanded size    cdr  WAVE problems  fmt   ratio  filename
     6:41.27       70799948 B   ---   --   ---xx   flac  0.5394  01 Touch Of Grey.flac
     4:07.28       43636700 B   ---   --   ---xx   flac  0.5408  02 Greatest Story Ever Told.flac
     5:18.50       56212844 B   ---   --   ---xx   flac  0.5089  03 Jack A Roe.flac
     7:36.73       80610140 B   ---   --   ---xx   flac  0.4943  04 The Same Thing.flac
     7:55.49       83905292 B   ---   --   ---xx   flac  0.4915  05 Stagger Lee.flac
     3:08.40       33257324 B   ---   --   ---xx   flac  0.5370  06 Me & My Uncle.flac
     5:45.23       60912140 B   ---   --   ---xx   flac  0.5482  07 Mexicali Blues.flac
     8:29.74       89961692 B   ---   --   ---xx   flac  0.5062  08 Ramble On Rose.flac
     9:33.32      101152508 B   ---   --   ---xx   flac  0.5192  09 Music Never Stopped.flac
     9:40.17      102352028 B   ---   --   ---xx   flac  0.4759  10 Women Are Smarter.flac
     6:37.58       70167260 B   ---   --   ---xx   flac  0.4989  11 If The Shoe Fits.flac
     6:41.26       70797596 B   ---   --   ---xx   flac  0.5072  12 Long Way To Go Home.flac
     6:37.01       70033196 B   ---   --   ---xx   flac  0.5073  13 Help On The Way.flac
     6:46.24       71674892 B   ---   --   ---xx   flac  0.5034  14 Slip Knot.flac
    14:21.20      151927484 B   ---   --   ---xx   flac  0.5213  15 Franklins Tower.flac
    14:01.68      148512380 B   ---   --   ---xx   flac  0.4301  16 Drumz.flac
    16:54.70      179034284 B   ---   --   ---xx   flac  0.3626  17 Space.flac
     7:17.10       77110364 B   ---   --   ---xx   flac  0.4809  18 All A Long The Watchtower.flac
    13:15.01      140240396 B   ---   --   ---xx   flac  0.4503  19 The Days Between.flac
    10:19.56      109323356 B   ---   --   ---xx   flac  0.4955  20 Good Lovin'.flac
     7:20.68       77775980 B   ---   --   ---xx   flac  0.4909  21 Liberty.flac
   178:30.65     1889397804 B                            0.4830  (21 files)

Show Checksums
ffp
01 Touch Of Grey.flac:1005540c4aa4f1194a2a6e8c40b61c80
02 Greatest Story Ever Told.flac:cf4b5d9f026dcab1b35f07eb5859e5ff
03 Jack A Roe.flac:9694f6d2cf1772b5d2f9b892a28b717e
04 The Same Thing.flac:164978ad3e23016037a20ed3096dc84a
05 Stagger Lee.flac:6b2c7d6d37e79a7a3282b8dc343cc714
06 Me & My Uncle.flac:a530464924977709b52d14bb09655ed3
07 Mexicali Blues.flac:d37ff242cd1f7939b432e4f38f552cb0
08 Ramble On Rose.flac:ae12449bac0b49a182bea49e17d37ad5
09 Music Never Stopped.flac:3f7899d430fa9463db64db8ecf4f9afb
10 Women Are Smarter.flac:f38213970ce94e3dc525584dcf0a825b
11 If The Shoe Fits.flac:f14701da938f4d586a6338af92d15960
12 Long Way To Go Home.flac:e6833d1ee7ab140b18c4cd6e5c16e5c4
13 Help On The Way.flac:8ec79f523e58ba2e29ccffa7130c4213
14 Slip Knot.flac:0f54fff3f297e55cec346c970b143529
15 Franklins Tower.flac:d9372e55f9eee37135147b5694be292a
16 Drumz.flac:24750656d6371e5625166a99a1b904dd
17 Space.flac:cb348bc16b8b9016d4289037a3da8d82
18 All A Long The Watchtower.flac:aa3dc45f3ea894c27e17d7a997b6598b
19 The Days Between.flac:e5bf544cc07bd66fac0c71154c66436c
20 Good Lovin'.flac:7666fabd9d6cb5692c3a45dba656184e
21 Liberty.flac:ea222a3315d7ea6e7d025fb5736ea462
flac-md5
bf4a693fa9f589d88c32f04f2815daad *01 Touch Of Grey.flac
894f33605a8324e02a0b89ef92d02c6b *02 Greatest Story Ever Told.flac
a02aa0a15f4d809480e5b92b96ee692d *03 Jack A Roe.flac
b1385c0601852e42a0bef2e3189a37f7 *04 The Same Thing.flac
ebcaf9bedd39022d5df7fdd7cbf06ee9 *05 Stagger Lee.flac
c3afec2aa91799c1b1ce37662f390314 *06 Me & My Uncle.flac
9f29d8e28371f385f9f90f5f7fcfb7ea *07 Mexicali Blues.flac
8c9559c6839b9cb39bd684e7471b823e *08 Ramble On Rose.flac
82e3d597a7e5a217aecb8a4eb19a8034 *09 Music Never Stopped.flac
c64d8470d8e61bbefdce8493ffbf9613 *10 Women Are Smarter.flac
189e406fed227677f31316d603e02e20 *11 If The Shoe Fits.flac
0eba4c063b4452a2076d5ad96c3680fd *12 Long Way To Go Home.flac
aabe0aed6a4ec5554365c2dd00f21071 *13 Help On The Way.flac
668664acbeede99a2af6bd3f4e5d6d2d *14 Slip Knot.flac
cc7ff80b46368ce27e0236cda368d893 *15 Franklins Tower.flac
5f00710818c90390485c68b9496f0b59 *16 Drumz.flac
323876ba1ea98394cbc930c4a4755b7d *17 Space.flac
2a1ad5d95c9dd1bc1ec900dabf5750e9 *18 All A Long The Watchtower.flac
0d999a3b0cf5ae3fef5cd8ea281fc405 *19 The Days Between.flac
ddeabf6a7926402f00e8e4599d7fa1a7 *20 Good Lovin'.flac
40fe50da9518f9c7e1c38cf7a9df8d8e *21 Liberty.flac

Comments
Add Comment
Other Sources (comments)
SBD> ?> DAT> CD> Cool Edit>... (0) AUD (mic unk) >DAT>CD; via... (0) Shntool fix (by Chris... (0) Source: FOB Shure BG 4.0's... (0) Source: A:D(48kHz) no mic... (2) Source: Nak 300's/cp4's >... (0) flac16; (OTS) AKG... (0) flac16; Taper: Greg... (0) flac16; Source:... (0)
Date User Comment