Browse Collections Artists Sources   Search Dates

Add Show    List Management    Help


Phil Lesh & Friends 10/31/17
Capitol Theater, Port Chester, NY
Comments Add Comment    Source Collectors    Add to Collection    Add to Want List    History
Source # 139715 Other Sources
Entered by Matt Vernon
Checksums ffp , flac-md5
Disc Counts 0 / 0
Media Size
Date Circulated
Date Added

11/05/2017
Source Summary flac24 48khz Neumann KMR-82i shotguns > Oade M-248 > Sound Devices 722 > WAV 2448. Mics on 7-foot stand, front of OTS area, recording by Jon Pasternak. WAV 2448 > Wavelab > CD-Wave (24bit) > TLH > FLAC 2448 tagged. 
  Archive
Source Information - Download Text | Download Zip
PHIL LESH & TERRAPIN FAMILY BAND
Capitol Theater
Port Chester NY
10-31-2017

24bit/48kHz file-set

s1t01 crowd/intro
s1t02 Golden Road to Unlimited Devotion
s1t03 Stagger Lee
s1t04 How Sweet It Is
s1t05 The Mountain Song
s1t06 Candyman
s1t07 Tore Up Over You
s1t08 Old Man
s1t09 The Apartment Song
s1t10 Sugar Magnolia

s2t01 crowd/intro
s2t02 Werewolves of London
s2t03 Love the One You're With
s2t04 Monster Mash
s2t05 Fire on the Mountain
s2t06 Sugaree
s2t07 Santiago
s2t08 Convergence
s2t09 La Malanga
s2t10 Bad Moon Rising
s2t11 Playin' in the Band
s2t12 Mountains of the Moon
s2t13 Uncle John's Band
s2t14 phil raps for Cody
s2t15 Samson & Delilah

Neumann KMR-82i shotguns > Oade M-248 > Sound Devices 722 > WAV 2448.
Mics on 7-foot stand, front of OTS area, recording by Jon Pasternak.
WAV 2448 > Wavelab > CD-Wave (24bit) > TLH > FLAC 2448 tagged.

The Musicians:
Rob Barraco
Nicki Bluhm
Ross James
Alex Koford
Grahame Lesh
Phil Lesh
Robert Randolph
Guests in the Second Set:
Preservation Hall Jazz Band

39093ff0c6c7819edb155e65c6695d5f *pl2017-10-31s1t01.flac
25ddd499933e32976bb6b7b0b59d6c2b *pl2017-10-31s1t02.flac
cbcc3304c9335e0c74b6d6a9685720a0 *pl2017-10-31s1t03.flac
3ec27227958016d7eb24929093181461 *pl2017-10-31s1t04.flac
315c249cd17e348e63f89f865f898833 *pl2017-10-31s1t05.flac
bc74ae170f4481aa2dd7b6db0a713a9d *pl2017-10-31s1t06.flac
9439cf3c1247ee82d18deb87840f0a1e *pl2017-10-31s1t07.flac
54d142debe249015bebcb4c37ff67b50 *pl2017-10-31s1t08.flac
b64307178770307f37a3d89bc8b78aa9 *pl2017-10-31s1t09.flac
2789acadfe2a0b140c849e1ca2e90bf6 *pl2017-10-31s1t10.flac
a66924edc2b6067565339ea9c5fd6728 *pl2017-10-31s2t01.flac
ea6ba8b9b9113494a889729a617cc423 *pl2017-10-31s2t02.flac
45f64d1d36104c18f05eb79cc4000041 *pl2017-10-31s2t03.flac
9cf0e8c37dcd21bb80b0ca4253624edd *pl2017-10-31s2t04.flac
ac3fb3efc6ba995ef850fbe1b4a13169 *pl2017-10-31s2t05.flac
a989932673a17cf58ca939c19c61de0c *pl2017-10-31s2t06.flac
237053d8e29e370e7789cfd5c7223b8c *pl2017-10-31s2t07.flac
c10ce6e6e8493989c741fa45e46c2a81 *pl2017-10-31s2t08.flac
e5c344b680b9e6d8d8be5f5518069e24 *pl2017-10-31s2t09.flac
1a31778abaff0a3babdd5d208d77c652 *pl2017-10-31s2t10.flac
42fffc389fdb25f5d9fd634e5e74d36d *pl2017-10-31s2t11.flac
f759e015f27553dc9358af16c1977df8 *pl2017-10-31s2t12.flac
619f68ebaa140b27b0cc1a0665bcb641 *pl2017-10-31s2t13.flac
42dabdc58fbe0de498a6c8dcd870757b *pl2017-10-31s2t14.flac
f48bca33beb317bc96a990fe2dd159c0 *pl2017-10-31s2t15.flac

pl2017-10-31s1t01.flac:628bd1c688b82be56486ec3b5bf727ab
pl2017-10-31s1t02.flac:48ae873ff04e242f567e23b923291ac9
pl2017-10-31s1t03.flac:a915949e858321561aeac2b336e57453
pl2017-10-31s1t04.flac:76d51eda7db1c2eee96e485006df8b1a
pl2017-10-31s1t05.flac:8f8ae1594bf54835408a92b08618e3d8
pl2017-10-31s1t06.flac:b7f9f24c0fe55a6454be7ab97dac14b4
pl2017-10-31s1t07.flac:003d27684ec60141b64a43953b55d595
pl2017-10-31s1t08.flac:3fd443479589d88ba3b263e7b3e05f01
pl2017-10-31s1t09.flac:9cef55201612765e36462ca2aa9d56a8
pl2017-10-31s1t10.flac:62c0eb0481fc455b7e497307efa2a1d0
pl2017-10-31s2t01.flac:7402931b98ca508be44fc454a7ab8b99
pl2017-10-31s2t02.flac:476b1b658ee8eaf007407b4aa49caab3
pl2017-10-31s2t03.flac:493bb0c1412c21b2a40a5a766d924df0
pl2017-10-31s2t04.flac:f01a3ff509ba42d26cc258aeb2cefade
pl2017-10-31s2t05.flac:3ba677e409eadf4798810a0d00450809
pl2017-10-31s2t06.flac:0286a948775c5541da60f6b2d5723b17
pl2017-10-31s2t07.flac:451a552ae933c9725742a7e171a63ab4
pl2017-10-31s2t08.flac:723243613170c24c2bdb52b471e3a769
pl2017-10-31s2t09.flac:00b106872e77aa4f9e123615bc7805fb
pl2017-10-31s2t10.flac:329d496c72d9889fbe5ec3c52e3b8f8c
pl2017-10-31s2t11.flac:1fe09403348a20785d8a71187226a2d2
pl2017-10-31s2t12.flac:26ea170d1e095c3e8708d551e14dc0bb
pl2017-10-31s2t13.flac:c7dca8baead23710ac22ea4970d4f072
pl2017-10-31s2t14.flac:be3c596e6d7c473eadbb92bfbeea5156
pl2017-10-31s2t15.flac:3bff7d851eeae5877d59727496ecdf25

    length     expanded size    cdr  WAVE problems  fmt   ratio  filename
     2:03.200      35481644 B   cxx   --   ---xx   flac  0.6192  pl2017-10-31s1t01.flac
     7:28.427     129146924 B   cxx   --   ---xx   flac  0.6776  pl2017-10-31s1t02.flac
     7:20.973     127000364 B   cxx   --   ---xx   flac  0.6758  pl2017-10-31s1t03.flac
     8:24.320     145244204 B   cxx   --   ---xx   flac  0.6654  pl2017-10-31s1t04.flac
    13:17.267     229612844 B   cxx   --   ---xx   flac  0.6652  pl2017-10-31s1t05.flac
     8:07.160     140302124 B   cxx   --   ---xx   flac  0.6280  pl2017-10-31s1t06.flac
     6:39.827     115150124 B   cxx   --   ---xx   flac  0.6832  pl2017-10-31s1t07.flac
     7:51.640     135832364 B   cxx   --   ---xx   flac  0.6311  pl2017-10-31s1t08.flac
     2:34.787      44578604 B   cxx   --   ---xx   flac  0.6834  pl2017-10-31s1t09.flac
     8:27.516     146164772 B   cxx   --   ---xx   flac  0.6952  pl2017-10-31s1t10.flac
     1:46.787      30754604 B   cxx   --   ---xx   flac  0.6307  pl2017-10-31s2t01.flac
     8:36.027     148615724 B   cxx   --   ---xx   flac  0.6877  pl2017-10-31s2t02.flac
     5:07.427      88538924 B   cxx   --   ---xx   flac  0.6937  pl2017-10-31s2t03.flac
     7:07.920     123241004 B   cxx   --   ---xx   flac  0.6717  pl2017-10-31s2t04.flac
    10:53.800     188294444 B   cxx   --   ---xx   flac  0.6806  pl2017-10-31s2t05.flac
    14:23.907     248805164 B   cxx   --   ---xx   flac  0.6804  pl2017-10-31s2t06.flac
     7:56.373     137195564 B   cxx   --   ---xx   flac  0.7146  pl2017-10-31s2t07.flac
     7:36.493     131470124 B   cxx   --   ---xx   flac  0.6762  pl2017-10-31s2t08.flac
     5:00.603      86573696 B   cxx   --   ---xx   flac  0.6821  pl2017-10-31s2t09.flac
     8:55.160     154126124 B   cxx   --   ---xx   flac  0.6353  pl2017-10-31s2t10.flac
    10:22.933     179404844 B   cxx   --   ---xx   flac  0.6715  pl2017-10-31s2t11.flac
    12:37.440     218142764 B   cxx   --   ---xx   flac  0.6359  pl2017-10-31s2t12.flac
    10:55.827     188878124 B   cxx   --   ---xx   flac  0.6586  pl2017-10-31s2t13.flac
     2:50.427      49082924 B   cxx   --   ---xx   flac  0.5908  pl2017-10-31s2t14.flac
     7:27.649     128923088 B   cxx   --   ---xx   flac  0.6685  pl2017-10-31s2t15.flac
   193:53.889    3350561084 B                            0.6671  (25 files)

No errors occured.

Show Checksums
ffp
pl2017-10-31s1t01.flac:628bd1c688b82be56486ec3b5bf727ab
pl2017-10-31s1t02.flac:48ae873ff04e242f567e23b923291ac9
pl2017-10-31s1t03.flac:a915949e858321561aeac2b336e57453
pl2017-10-31s1t04.flac:76d51eda7db1c2eee96e485006df8b1a
pl2017-10-31s1t05.flac:8f8ae1594bf54835408a92b08618e3d8
pl2017-10-31s1t06.flac:b7f9f24c0fe55a6454be7ab97dac14b4
pl2017-10-31s1t07.flac:003d27684ec60141b64a43953b55d595
pl2017-10-31s1t08.flac:3fd443479589d88ba3b263e7b3e05f01
pl2017-10-31s1t09.flac:9cef55201612765e36462ca2aa9d56a8
pl2017-10-31s1t10.flac:62c0eb0481fc455b7e497307efa2a1d0
pl2017-10-31s2t01.flac:7402931b98ca508be44fc454a7ab8b99
pl2017-10-31s2t02.flac:476b1b658ee8eaf007407b4aa49caab3
pl2017-10-31s2t03.flac:493bb0c1412c21b2a40a5a766d924df0
pl2017-10-31s2t04.flac:f01a3ff509ba42d26cc258aeb2cefade
pl2017-10-31s2t05.flac:3ba677e409eadf4798810a0d00450809
pl2017-10-31s2t06.flac:0286a948775c5541da60f6b2d5723b17
pl2017-10-31s2t07.flac:451a552ae933c9725742a7e171a63ab4
pl2017-10-31s2t08.flac:723243613170c24c2bdb52b471e3a769
pl2017-10-31s2t09.flac:00b106872e77aa4f9e123615bc7805fb
pl2017-10-31s2t10.flac:329d496c72d9889fbe5ec3c52e3b8f8c
pl2017-10-31s2t11.flac:1fe09403348a20785d8a71187226a2d2
pl2017-10-31s2t12.flac:26ea170d1e095c3e8708d551e14dc0bb
pl2017-10-31s2t13.flac:c7dca8baead23710ac22ea4970d4f072
pl2017-10-31s2t14.flac:be3c596e6d7c473eadbb92bfbeea5156
pl2017-10-31s2t15.flac:3bff7d851eeae5877d59727496ecdf25
flac-md5
39093ff0c6c7819edb155e65c6695d5f *pl2017-10-31s1t01.flac
25ddd499933e32976bb6b7b0b59d6c2b *pl2017-10-31s1t02.flac
cbcc3304c9335e0c74b6d6a9685720a0 *pl2017-10-31s1t03.flac
3ec27227958016d7eb24929093181461 *pl2017-10-31s1t04.flac
315c249cd17e348e63f89f865f898833 *pl2017-10-31s1t05.flac
bc74ae170f4481aa2dd7b6db0a713a9d *pl2017-10-31s1t06.flac
9439cf3c1247ee82d18deb87840f0a1e *pl2017-10-31s1t07.flac
54d142debe249015bebcb4c37ff67b50 *pl2017-10-31s1t08.flac
b64307178770307f37a3d89bc8b78aa9 *pl2017-10-31s1t09.flac
2789acadfe2a0b140c849e1ca2e90bf6 *pl2017-10-31s1t10.flac
a66924edc2b6067565339ea9c5fd6728 *pl2017-10-31s2t01.flac
ea6ba8b9b9113494a889729a617cc423 *pl2017-10-31s2t02.flac
45f64d1d36104c18f05eb79cc4000041 *pl2017-10-31s2t03.flac
9cf0e8c37dcd21bb80b0ca4253624edd *pl2017-10-31s2t04.flac
ac3fb3efc6ba995ef850fbe1b4a13169 *pl2017-10-31s2t05.flac
a989932673a17cf58ca939c19c61de0c *pl2017-10-31s2t06.flac
237053d8e29e370e7789cfd5c7223b8c *pl2017-10-31s2t07.flac
c10ce6e6e8493989c741fa45e46c2a81 *pl2017-10-31s2t08.flac
e5c344b680b9e6d8d8be5f5518069e24 *pl2017-10-31s2t09.flac
1a31778abaff0a3babdd5d208d77c652 *pl2017-10-31s2t10.flac
42fffc389fdb25f5d9fd634e5e74d36d *pl2017-10-31s2t11.flac
f759e015f27553dc9358af16c1977df8 *pl2017-10-31s2t12.flac
619f68ebaa140b27b0cc1a0665bcb641 *pl2017-10-31s2t13.flac
42dabdc58fbe0de498a6c8dcd870757b *pl2017-10-31s2t14.flac
f48bca33beb317bc96a990fe2dd159c0 *pl2017-10-31s2t15.flac

Comments
Add Comment
Other Sources (comments)
flac24 Source: Aud... (0) flac16 Source: Aud... (0) flac16 44.1khz... (0)
Date User Comment