Browse Collections Artists Sources   Search Dates

Add Show    List Management    Help


Grateful Dead 03/29/87
The Spectrum, Philadelphia, PA
Comments Add Comment    Source Collectors    Add to Collection    Add to Want List    History
Source # 139719 Other Sources
Entered by Matt Vernon
Checksums ffp , flac-md5
Disc Counts 0 / 0
Media Size Compressed: 3.22 GB (3459220975 bytes)
Uncompressed: 4.72 GB (5068018702 bytes)
Date Circulated
Date Added
11/05/2017
11/05/2017
Source Summary flac24; Recording Info: Ultra Matrix SBD > Cassette Master (TDK MA-R90); Transfer Info: Cassette Master (Nakamichi CR-7A) > Tascam DA-3000 (DSF 1-bit/5.8 MHz) > KORG AudioGate 4 > Samplitude Pro X3 Suite > FLAC/24; All Transfers and Mastering By Charlie Miller 
  Archive
Source Information - Download Text | Download Zip
Grateful Dead - March 29, 1987
The Spectrum - Philadelphia, PA

Recording Info:
Ultra Matrix SBD > Cassette Master (TDK MA-R90)

Transfer Info:
Cassette Master (Nakamichi CR-7A) > Tascam DA-3000 (DSF 1-bit/5.8 MHz) >
KORG AudioGate 4 > Samplitude Pro X3 Suite > FLAC/24
(1 Disc FLAC)

All Transfers and Mastering By Charlie Miller
[email protected]
September 12, 2017

Notes:
-- Two sets of masters were used to make this show complete

Set 1:
01 - Tuning
02 - Hell In A Bucket >
03 - Bertha >
04 - Little Red Rooster
05 - Far From Me
06 - Friend Of The Devil >
07 - El Paso
08 - When Push Comes To Shove
09 - Let It Grow

Set 2:
10 - Tuning
11 - Mississippi Half-Step Uptown Toodeloo >
12 - Playing In The Band >
13 - China Doll >
14 - Man Smart (Woman Smarter) >
15 - Drums >
16 - Space >
17 - The Wheel >
18 - Goin' Down The Road Feeling Bad >
19 - Playing In The Band >
20 - Black Muddy River >
21 - Sugar Magnolia

Encore:
22 - Encore Break
23 - The Mighty Quinn (Quinn The Eskimo)


SHNTOOL OUTPUT:
    length     expanded size    cdr  WAVE problems  fmt   ratio  filename
     1:36.387      55518968 B   cxx   --   ---xx   flac  0.6724  01 Tuning.flac
     5:37.052     194142068 B   cxx   --   ---xx   flac  0.7012  02 Hell In A Bucket.flac
     7:11.880     248762684 B   cxx   --   ---xx   flac  0.6919  03 Bertha.flac
     9:09.725     316641710 B   cxx   --   ---xx   flac  0.6834  04 Little Red Rooster.flac
     4:48.277     166047392 B   cxx   --   ---xx   flac  0.6917  05 Far From Me.flac
     8:09.595     282007028 B   cxx   --   ---xx   flac  0.6810  06 Friend Of The Devil.flac
     5:34.884     192893366 B   cxx   --   ---xx   flac  0.6849  07 El Paso.flac
     6:00.144     207442772 B   cxx   --   ---xx   flac  0.6868  08 When Push Comes To Shove.flac
    13:06.896     453252248 B   cxx   --   ---xx   flac  0.6888  09 Let It Grow.flac
     1:12.792      41928494 B   cxx   --   ---xx   flac  0.6478  10 Tuning.flac
     7:47.947     269537510 B   cxx   --   ---xx   flac  0.6860  11 Mississippi Half-Step Uptown Toodleoo.flac
    10:14.457     353927354 B   cxx   --   ---xx   flac  0.6898  12 Playing In The Band.flac
     6:39.445     230080532 B   cxx   --   ---xx   flac  0.6851  13 China Doll.flac
     7:22.379     254810234 B   cxx   --   ---xx   flac  0.6998  14 Man Smart (Woman Smarter).flac
     7:03.109     243710864 B   cxx   --   ---xx   flac  0.6654  15 Drums.flac
     7:49.115     270210548 B   cxx   --   ---xx   flac  0.6321  16 Space.flac
     7:01.400     242726162 B   cxx   --   ---xx   flac  0.6711  17 The Wheel.flac
     6:15.728     216419096 B   cxx   --   ---xx   flac  0.6900  18 Goin' Down The Road Feeling Bad.flac
     3:16.607     113245646 B   cxx   --   ---xx   flac  0.6810  19 Playing In The Band.flac
     5:58.536     206516570 B   cxx   --   ---xx   flac  0.6798  20 Black Muddy River.flac
     8:51.728     306275270 B   cxx   --   ---xx   flac  0.6906  21 Sugar Magnolia.flac
     0:41.737      24040382 B   cxx   --   ---xx   flac  0.6633  22 Encore Break.flac
     5:08.822     177881804 B   cxx   --   ---xx   flac  0.6819  23 The Mighty Quinn (Quinn The Eskimo).flac
   146:38.642    5068018702 B                            0.6826  (23 files)


Show Checksums
ffp
01 Tuning.flac:2edf6eab84d737fddfa7e6d386401b5d
02 Hell In A Bucket.flac:dc16a6600d586f3eecfe364e55d2481a
03 Bertha.flac:3439f6c46748315182a93108c35bd655
04 Little Red Rooster.flac:27102492e2fc74484ee80a858bfd9009
05 Far From Me.flac:521b8a58036f32c0fb338c93d14205ba
06 Friend Of The Devil.flac:e18643a420a7d2a8c3d8756bd64bea37
07 El Paso.flac:faf0a93737b83a9f745be24cca48fab1
08 When Push Comes To Shove.flac:1d619e7b300b9d390fff5971cac7cd63
09 Let It Grow.flac:2bd2ea21dee2df3cb95ea5e015ce7416
10 Tuning.flac:3159143e7764654592300ee4d3d0ee04
11 Mississippi Half-Step Uptown Toodleoo.flac:13b96ba8525fc549c74707d92d92f3f4
12 Playing In The Band.flac:603f66a84aa95000edf8cd2639ac3594
13 China Doll.flac:81d863fb4924c4d6bc1bcbfef41e7f79
14 Man Smart (Woman Smarter).flac:6d795308422357ef605d5ae6ab3abb98
15 Drums.flac:894c5efa6c966c347081d57785f6a970
16 Space.flac:97613d2079baacb3d38ac806975f00f5
17 The Wheel.flac:2fc85a56983aa105fa3d4012c94e40f0
18 Goin' Down The Road Feeling Bad.flac:55fafaec4edbabc675a109bd14a6589a
19 Playing In The Band.flac:b4a9d3b4f5b8da6d059aa2b43b5df618
20 Black Muddy River.flac:aae596d6057d3ef239e48c0e23263b1c
21 Sugar Magnolia.flac:d2c551cd041ca5bc3ca3070ee035827b
22 Encore Break.flac:9090478fa44d9ac7f947716686731cd8
23 The Mighty Quinn (Quinn The Eskimo).flac:368443fd9d3517cb7a338093cff9bef6
flac-md5
8f61331bc22ce7346dc633bc544e888c *01 Tuning.flac
535d2c1be7536224089bb7a4e7845263 *02 Hell In A Bucket.flac
beab87b899f2c37b517f14c88d995003 *03 Bertha.flac
42f3d2e11eba4b75600926b378f3e45d *04 Little Red Rooster.flac
7f1f70812e5e2a9fe427f6bead6e8e97 *05 Far From Me.flac
5750781b0acc3d346c32544658df0dda *06 Friend Of The Devil.flac
219ea906878611d0c0cb0e65a1266ec4 *07 El Paso.flac
7ce1451cd957724a961e190deb3fbad7 *08 When Push Comes To Shove.flac
70c64d8a098f268af00cf76b5a025c24 *09 Let It Grow.flac
fed3197dadfa6757d2e0ce5c7f61a2c1 *10 Tuning.flac
f8899f888f208a476e99d881f52017a7 *11 Mississippi Half-Step Uptown Toodleoo.flac
dd8b681e8468898d80ce65a42c90a999 *12 Playing In The Band.flac
002d28c28a7f4925952dd24f93e34535 *13 China Doll.flac
d014d0413c5a7d781c1082b60bda1a9c *14 Man Smart (Woman Smarter).flac
342d58c91e9e1dbd0cb895209d631b28 *15 Drums.flac
1ac43beb396e5b43ee4b51f003328ce3 *16 Space.flac
3d1074cd3ae12a7c7f984b474e9e017e *17 The Wheel.flac
8f15a45b5b322edfe6c72320ec2e603a *18 Goin' Down The Road Feeling Bad.flac
8fd02990f786589c30dba0efb9f0d2b4 *19 Playing In The Band.flac
cee7124bd3814fa2143111be516c3a10 *20 Black Muddy River.flac
e26267cb9ae21ab2c9d0d3ace4d89325 *21 Sugar Magnolia.flac
7a58a3d32078492f0e1043d752ca4363 *22 Encore Break.flac
208a0f09fb0160865dc3fe700c512a9c *23 The Mighty Quinn (Quinn The Eskimo).flac

Comments
Add Comment
Other Sources (comments)
Audience Master Cassette... (1) flac16; Source: AUD,... (0) flac16; Source:... (0) flac16; taper : Joe... (0) flac16; Master:... (0) flac16; Source: 2... (0) flac24; source:... (0) flac16; Robert... (1) flac16; Recording... (0)
Date User Comment