Browse Collections Artists Sources   Search Dates

Add Show    List Management    Help


Grateful Dead 03/31/87
The Spectrum, Philadelphia, PA
Comments Add Comment    Source Collectors    Add to Collection    Add to Want List    History
Source # 139721 Other Sources
Entered by Matt Vernon
Checksums ffp , flac-md5
Disc Counts 0 / 0
Media Size Compressed: 3.35 GB (3595017631 bytes)
Uncompressed: 4.9 GB (5261517682 bytes)
Date Circulated
Date Added
11/05/2017
11/05/2017
Source Summary flac24; Recording Info: Ultra Matrix SBD > Cassette Master (TDK MA-R90); Transfer Info: Cassette Master (Nakamichi CR-7A) > Tascam DA-3000 (DSF 1-bit/5.8 MHz) > KORG AudioGate 4 > Adobe Audition CC 2015 > Samplitude Pro X3 Suite > FLAC/24; All Transfers and Mastering By Charlie Miller 
  Archive
Source Information - Download Text | Download Zip
Grateful Dead - March 31, 1987
The Spectrum - Philadelphia, PA

Recording Info:
Ultra Matrix SBD > Cassette Master (TDK MA-R90)

Transfer Info:
Cassette Master (Nakamichi CR-7A) > Tascam DA-3000 (DSF 1-bit/5.8 MHz) >
KORG AudioGate 4 > Adobe Audition CC 2015 > Samplitude Pro X3 Suite > FLAC/24
(1 Disc FLAC)

All Transfers and Mastering By Charlie Miller
[email protected]
September 12, 2017

Notes:
-- Two sets of masters were used to make this show complete
-- This is a special mix done for the WMMR broadcast
-- Dan Healy requested that the DJ's be on the recording

Set 1:
01 - Tuning
02 - Jack Straw >
03 - Franklin's Tower
04 - C.C. Rider
05 - Ramble On Rose
06 - Tons Of Steel
07 - Mama Tried >
08 - Big River
09 - Candyman
10 - Desolation Row >
11 - Don't Ease Me In

Set 2:
12 - Touch Of Grey
13 - Estimated Prophet >
14 - Terrapin Station >
15 - Drums >
16 - Space >
17 - Uncle John's Band >
18 - I Need A Miracle >
19 - Stella Blue >
20 - Around And Around >
21 - Turn On Your Lovelight

Encore:
22 - Encore Break
23 - Brokedown Palace


SHNTOOL OUTPUT:
    length     expanded size    cdr  WAVE problems  fmt   ratio  filename
     4:10.423     144243956 B   cxx   --   ---xx   flac  0.6718  01 Tuning.flac
     5:11.664     179518238 B   cxx   --   ---xx   flac  0.6907  02 Jack Straw.flac
     7:19.239     253001522 B   cxx   --   ---xx   flac  0.6937  03 Franklin's Tower.flac
     9:18.235     321543494 B   cxx   --   ---xx   flac  0.6805  04 CC Rider.flac
     8:38.776     298814864 B   cxx   --   ---xx   flac  0.6831  05 Ramble On Rose.flac
     5:18.035     183187934 B   cxx   --   ---xx   flac  0.6963  06 Tons Of Steel.flac
     2:35.101      89338046 B   cxx   --   ---xx   flac  0.6939  07 Mama Tried.flac
     6:23.716     221020298 B   cxx   --   ---xx   flac  0.6923  08 Big River.flac
     7:08.147     246612542 B   cxx   --   ---xx   flac  0.6838  09 Candyman.flac
    10:11.164     352030778 B   cxx   --   ---xx   flac  0.6899  10 Desolation Row.flac
     3:44.599     129368900 B   cxx   --   ---xx   flac  0.6924  11 Don't Ease Me In.flac
     6:41.374     231191690 B   cxx   --   ---xx   flac  0.6910  12 Touch Of Grey.flac
    10:54.643     377074508 B   cxx   --   ---xx   flac  0.6899  13 Estimated Prophet.flac
    11:29.787     397317518 B   cxx   --   ---xx   flac  0.6783  14 Terrapin Station.flac
    10:31.350     363657590 B   cxx   --   ---xx   flac  0.6589  15 Drums.flac
     6:38.765     229688750 B   cxx   --   ---xx   flac  0.6438  16 Space.flac
     7:18.216     252412310 B   cxx   --   ---xx   flac  0.6952  17 Uncle John's Band.flac
     3:42.566     128197790 B   cxx   --   ---xx   flac  0.6996  18 I Need A Miracle.flac
     8:14.114     284609882 B   cxx   --   ---xx   flac  0.6804  19 Stella Blue.flac
     3:43.598     128792264 B   cxx   --   ---xx   flac  0.6878  20 Around And Around.flac
     5:18.249     183311666 B   cxx   --   ---xx   flac  0.6887  21 Turn On Your Lovelight.flac
     1:38.214      56571476 B   cxx   --   ---xx   flac  0.6425  22 Encore Break.flac
     6:04.604     210011666 B   cxx   --   ---xx   flac  0.6911  23 Brokedown Palace.flac
   152:14.578    5261517682 B                            0.6833  (23 files)


Show Checksums
ffp
01 Tuning.flac:2aa89e4ad43fc40cc25fa9c87e8f7c4e
02 Jack Straw.flac:63266ab2656d6dc8404f88bf7e936b2a
03 Franklin's Tower.flac:6e152dc9bc74e014d65fa985a4cddc44
04 CC Rider.flac:eeba33800542a4ca0d88694c698709c1
05 Ramble On Rose.flac:dbfe918dd20df90ed0a41f525f87f272
06 Tons Of Steel.flac:49a74bb204a23534949c1e1c60d70ba9
07 Mama Tried.flac:bf7a07bd3950fb8456c49a534b3a3657
08 Big River.flac:067f7ad20d912f9e42fdabbb8796ce80
09 Candyman.flac:b9847a4b7c2baf4dee6b42d1ed67836c
10 Desolation Row.flac:fbf816779ca2abaafb9e59edf797110e
11 Don't Ease Me In.flac:c6e75fe63baf1398a405dcc39cd418a9
12 Touch Of Grey.flac:8769cbc313538194300d61f93fa48509
13 Estimated Prophet.flac:c3f695aea7c36192902a42dc1dc14e3f
14 Terrapin Station.flac:2d1c2eda286944d46fc54fb6acf997eb
15 Drums.flac:3ad0dcf7c12ce4014370a6c76bbe462c
16 Space.flac:bc85f9817bfde9123e05cbd288d7c953
17 Uncle John's Band.flac:eac334036ed30d117d9ee8bf9a957ac5
18 I Need A Miracle.flac:5cc085e5538a5867131efb88a337e232
19 Stella Blue.flac:107513880f5da862505e2db88ce5f9b4
20 Around And Around.flac:ad90fae5dfa55da430ffa3469ef7beb3
21 Turn On Your Lovelight.flac:ea56d1b2ec4e4913814b95d7282edd8f
22 Encore Break.flac:1c0e3154832d1846c9d968dcae9455fa
23 Brokedown Palace.flac:1a138b32cb8e0504d3cfbf3192e3571b
flac-md5
6974394eb36349aac25f9d98de82e973 *01 Tuning.flac
81ac8e008ea6c757dac01ab0d60b0761 *02 Jack Straw.flac
ed5aef3d555303735d05382a3e5a5455 *03 Franklin's Tower.flac
5a94ac5f2f79616b2fa71921c6b5f245 *04 CC Rider.flac
a21ff79fa5f578db75efe12575a3a4c1 *05 Ramble On Rose.flac
c7c1bcab13b26242ff7509dbfffc5e6d *06 Tons Of Steel.flac
62f6d5ba9b57728e04e7a22212e98648 *07 Mama Tried.flac
fad8ba2f386a36f42d66777c998308ae *08 Big River.flac
fa643807751b723b792d76f2763ffdce *09 Candyman.flac
87971a6bb3e717de77066b1bc64707c5 *10 Desolation Row.flac
ca7cd136a35b2829128744e4350c8c4d *11 Don't Ease Me In.flac
892b96f8c9413a829e45802d7cc538c8 *12 Touch Of Grey.flac
63bc1b4cbe2523597baa6354b784ab18 *13 Estimated Prophet.flac
dd9de83abd980059a5d1b757f438d34c *14 Terrapin Station.flac
5a2f69e319cf92a9c11bad4bfbcd7f2d *15 Drums.flac
1de8055a0eb4388f6b55740207c6ecd7 *16 Space.flac
7741a1db036e3e93d3a1c694b3f0c4ea *17 Uncle John's Band.flac
7520b63f2de90f9f8d0dde3f720ee2bc *18 I Need A Miracle.flac
333ad09437b96a8d59183b2cfe738115 *19 Stella Blue.flac
41ef5edca477d0194856efff3e5a4402 *20 Around And Around.flac
b7f35ed9cbcc1fb558026f903c1152ab *21 Turn On Your Lovelight.flac
a804b53983aa7950168e080a33d3a552 *22 Encore Break.flac
338511ec9d2abf2c189d31418eabdc64 *23 Brokedown Palace.flac

Comments
Add Comment
Other Sources (comments)
FM(AUD):MC> DAT> CD> AIFF>... (0) FM Broadcast (93.3 WMMR,... (1) Recording Info: FM ->... (1) flac16; Source:... (0) flac16; taper: Joe... (0) flac24; source:... (0) flac16; Recording... (0)
Date User Comment