Browse Collections Artists Sources   Search Dates

Add Show    List Management    Help


Grateful Dead 07/26/94
Riverport Amphitheatre, Maryland Heights, MO
Comments Add Comment    Source Collectors    Add to Collection    Add to Want List    History
Source # 139723 Other Sources
Entered by Matt Vernon
Checksums ffp , flac-md5
Disc Counts 0 / 0
Media Size
Date Circulated
Date Added

11/05/2017
Source Summary flac16/44.1khz Source Info: TS Beyer CMC 101 (Omni's)-> Casio DA-7-> DAT. Transfer Info: Dat (Panasonic SV-3700) -> Marantz CDR-615 -> CD (Late 90's) Extract Wav-> Flac Level 8-> Tagged (16/44.1). Taped & Transfers by Pete Ebel 
  Archive
Source Information - Download Text | Download Zip
Grateful Dead
Riverport Ampitheatre - Maryland Heights - MO
July 26, 1994

Source Info:
TS Beyer CMC 101 (Omni's)-> Casio DA-7-> DAT

Transfer Info:
Dat (Panasonic SV-3700) -> Marantz CDR-615 -> CD (Late 90's)
Extract Wav-> Flac Level 8-> Tagged (16/44.1)


Taped & Transfers by Pete Ebel
November 3, 2017


Notes:
Set #2 is Seemless


Set #1:
01. Jack Straw
02. Friend Of The Devil
03. Little Red Rooster
04. Lazy River Road
05. Queen Jane
06. Tennessee Jed
07. Childhoods End
08. Easy Answers
09. Deal

Set #2:
10. China Cat Sunflower
11. I Know You Rider
12. Victim Or The Crime
13. Samba In The Rain
14. Ship Of Fool's
15. Estimated Prophet
16. Drumz
17. Space
18. The Wheel
19. Attic Of My Life
20. Sugar Magnolia

Encore:
21. I Fought The Law




SHNTOOL OUTPUT:
    length     expanded size    cdr  WAVE problems  fmt   ratio  filename
     7:43.63       81821420 B   ---   --   ---xx   flac  0.5866  01 Jack Straw.flac
     9:38.46      102067436 B   ---   --   ---xx   flac  0.5461  02 Friend Of The Devil.flac
     9:32.36      100985516 B   ---   --   ---xx   flac  0.5635  03 Little Red Rooster.flac
     7:27.68       79010780 B   ---   --   ---xx   flac  0.5622  04 Lazy River Road.flac
     7:28.31       79100156 B   ---   --   ---xx   flac  0.5760  05 Queen Jane.flac
     8:20.36       88284716 B   ---   --   ---xx   flac  0.5713  06 Tennessee Jed.flac
     4:42.74       49918892 B   ---   --   ---xx   flac  0.5690  07 Childhoods End.flac
     6:38.29       70275452 B   ---   --   ---xx   flac  0.6063  08 Easy Answers.flac
    10:59.68      116407580 B   ---   --   ---xx   flac  0.5826  09 Deal.flac
     7:47.15       82414124 B   ---   --   ---xx   flac  0.5994  10 China Cat Sunflower.flac
     6:18.67       66836828 B   ---   --   ---xx   flac  0.6218  11 I Know You Rider.flac
     9:15.19       97946732 B   ---   --   ---xx   flac  0.6244  12 Victim Or The Crime.flac
     8:30.67       90121628 B   ---   --   ---xx   flac  0.6317  13 Samba In The Rain.flac
     7:33.74       80083292 B   ---   --   ---xx   flac  0.5917  14 Ship Of Fool's.flac
    19:56.18      211016780 B   ---   --   ---xx   flac  0.5958  15 Estimated Prophet.flac
    11:27.10      121210364 B   ---   --   ---xx   flac  0.5250  16 Drumz.flac
     9:04.16       95999276 B   ---   --   ---xx   flac  0.5009  17 Space.flac
     6:44.27       71329148 B   ---   --   ---xx   flac  0.5702  18 The Wheel.flac
     4:50.05       51167804 B   ---   --   ---xx   flac  0.5449  19 Attics Of My Life.flac
    11:08.72      118004588 B   ---   --   ---xx   flac  0.5934  20 Sugar Magnolia.flac
     3:22.49       35748092 B   ---   --   ---xx   flac  0.5900  21 I Fought The Law.flac
   178:32.65     1889750604 B                            0.5786  (21 files)

Show Checksums
ffp
01 Jack Straw.flac:bc63b33abbeddfdab767cd4010cbf46b
02 Friend Of The Devil.flac:13e7b53d6b4135ac3bfa96d0cad039a3
03 Little Red Rooster.flac:1d1d5ddace204f3aeea783f4691f6116
04 Lazy River Road.flac:f7991d32ff94bab0506f9b7f12e05625
05 Queen Jane.flac:9f59074488ccf3a7b117b592a9dfe21c
06 Tennessee Jed.flac:be09c63cfe0857e30cb120463561e422
07 Childhoods End.flac:a8d0554627266de804bb930ed815f067
08 Easy Answers.flac:047971a4859d43a3011df7fa1451a708
09 Deal.flac:1bd05df81191b27b36913c057e58cc73
10 China Cat Sunflower.flac:b124fc12d467ad6349eaea99f21f2d6b
11 I Know You Rider.flac:bc56deb9d53d63f40aad2eee1169d658
12 Victim Or The Crime.flac:3295752c0c11c72fd0813f6029ec9463
13 Samba In The Rain.flac:b952d0b13bbcda4634f324d7de3e5d62
14 Ship Of Fool's.flac:d81b3594de20c44d49dec1ca0b1a2c8b
15 Estimated Prophet.flac:205cfd8091e8807caa610777a59f7721
16 Drumz.flac:ef2181d2817741cd756ef1cf8ffd24c9
17 Space.flac:5e61309c4b6165ed713aea3226dd9ec2
18 The Wheel.flac:3de815bb7eb08216904d6efdc2163c55
19 Attics Of My Life.flac:fe9618df89ad87970db87ec61b042638
20 Sugar Magnolia.flac:74be61f2a7ac7bdc5540f95772dd9156
21 I Fought The Law.flac:0dfe7a0c98f46cdee11c5dc3abe90485
flac-md5
d61609f7688e9d3b2e85f64f59c3fc02 *01 Jack Straw.flac
dc42df3b27b4cb4d2d260f257f2838f6 *02 Friend Of The Devil.flac
7c5ef223a7b186f1ea3547f50563e036 *03 Little Red Rooster.flac
326801d2f7a96d9809735c52762527cb *04 Lazy River Road.flac
982b9cf7c32719fadb74799f158115db *05 Queen Jane.flac
3a5b90713c990d21235aca30d76ff7a5 *06 Tennessee Jed.flac
22a7611e9516f1429047981a05e30922 *07 Childhoods End.flac
a6952c84ad3e61d933d7bfbf4ed08120 *08 Easy Answers.flac
d56e99d6b02157156a71dea57f7f0b94 *09 Deal.flac
c01ecee0ce276b17b6d06f87f8d3fb0c *10 China Cat Sunflower.flac
0cfc42c4ab43e6fecb39e24ba902be12 *11 I Know You Rider.flac
f4446a7c1e0709e5fa588f2a899986d2 *12 Victim Or The Crime.flac
b95683e62dd0422dfac6ad4e528bf720 *13 Samba In The Rain.flac
860d0a307d30a4b69f03eab429aad80e *14 Ship Of Fool's.flac
8b8359461342dda23ecd761f3d43f726 *15 Estimated Prophet.flac
6f6fb9653519fc2544ec718894cc08ce *16 Drumz.flac
82d75197f621f5ace47f355cdf204596 *17 Space.flac
c1a1d745e042410280fb00c5771ac6bf *18 The Wheel.flac
275f24e375772abf41d144a904750fbd *19 Attics Of My Life.flac
788c06035916a122947dc754783d64c9 *20 Sugar Magnolia.flac
75ddc8de858768675d456f7809a7fe5d *21 I Fought The Law.flac

Comments
Add Comment
Other Sources (comments)
Chase Smith recording,... (0) flac16; Soundcheck:... (0) flac16/48kHz; Master... (0) flac16; Master... (0) flac24; Master... (0) flac16; Master... (0) flac16; Source: Sony... (0) flac16; Recording... (0)
Date User Comment