Browse Collections Artists Sources   Search Dates

Add Show    List Management    Help


Grateful Dead 07/27/94
Riverport Amphitheatre, Maryland Heights, MO
Comments Add Comment    Source Collectors    Add to Collection    Add to Want List    History
Source # 139724 Other Sources
Entered by Matt Vernon
Checksums ffp , flac-md5
Disc Counts 0 / 0
Media Size
Date Circulated
Date Added

11/05/2017
Source Summary flac16/44.1 Source Info: TS Beyer CMC 101 (Omni's)-> Casio DA-7-> DAT. Transfer Info: Dat (Panasonic SV-3700) -> Marantz CDR-615 -> CD (Late 90's). Extract Wav-> Flac Level 8-> Tagged (16/44.1). Taped & Transfers by Pete Ebel 
  Archive
Source Information - Download Text | Download Zip
Grateful Dead
Riverport Ampitheatre - Maryland Heights - MO
July 27, 1994

Source Info:
TS Beyer CMC 101 (Omni's)-> Casio DA-7-> DAT

Transfer Info:
Dat (Panasonic SV-3700) -> Marantz CDR-615 -> CD (Late 90's)
Extract Wav-> Flac Level 8-> Tagged (16/44.1)


Taped & Transfers by Pete Ebel
November 3, 2017


Notes:
Set #2 is Seemless


Set #1:
01. Here Comes Sunshine
02. Walking Blues
03. Jack A Roe
04. Black Throated Wind
05. Tom Thumb Blues
06. Ramble On Rose
07. Let It Grow

Set #2:
08. Box Of Rain
09. Iko-Iko
10. Long Way To Go Home
11. Corrina
12. Drumz
13. Space
14. The Last Time
15. The Days Between
16. Around & Around

Encore:
17. Liberty




SHNTOOL OUTPUT:
    length     expanded size    cdr  WAVE problems  fmt   ratio  filename
     6:20.62       67177868 B   ---   --   ---xx   flac  0.5744  01 Here Comes Sunshine.flac
     6:36.35       69936764 B   ---   --   ---xx   flac  0.5612  02 Walking Blues.flac
     6:20.08       67050860 B   ---   --   ---xx   flac  0.5413  03 Jack A Roe.flac
     6:45.18       71484380 B   ---   --   ---xx   flac  0.5721  04 Black Throated Wind.flac
     6:37.53       70155500 B   ---   --   ---xx   flac  0.5663  05 Tom Thumb Blues.flac
     9:20.02       98788748 B   ---   --   ---xx   flac  0.5477  06 Ramble On Rose.flac
    13:49.36      146320316 B   ---   --   ---xx   flac  0.5875  07 Let It Grow.flac
     5:26.65       57659324 B   ---   --   ---xx   flac  0.5778  08 Box Of Rain.flac
     9:47.29      103615052 B   ---   --   ---xx   flac  0.5945  09 Iko-Iko.flac
     6:24.12       67765868 B   ---   --   ---xx   flac  0.5901  10 Long Way To Go Home.flac
    20:50.10      220523564 B   ---   --   ---xx   flac  0.6024  11 Corrina.flac
    11:00.27      116487548 B   ---   --   ---xx   flac  0.5373  12 Drumz.flac
    18:24.71      194912636 B   ---   --   ---xx   flac  0.5180  13 Space.flac
     6:18.23       66733340 B   ---   --   ---xx   flac  0.5927  14 The Last Time.flac
    14:18.15      151386524 B   ---   --   ---xx   flac  0.5646  15 The Days Between.flac
    10:30.62      111277868 B   ---   --   ---xx   flac  0.5700  16 Around & Around.flac
     6:15.46       66258236 B   ---   --   ---xx   flac  0.5859  17 Liberty.flac
   165:06.49     1747534396 B                            0.5685  (17 files)



Show Checksums
ffp
01 Here Comes Sunshine.flac:f0d355517383b363c70bbcb47f7467df
02 Walking Blues.flac:8e7c5078532d6b3f3a52fc81e543ef10
03 Jack A Roe.flac:b744cceaff2cd9e0ecdbe7628f07bd48
04 Black Throated Wind.flac:14d1f4c7b9b8b908028d3338ee09a424
05 Tom Thumb Blues.flac:452724b0d253f3d4c83b46fd580fcd47
06 Ramble On Rose.flac:d24d93ff27d38af14d9808f510560bb3
07 Let It Grow.flac:4165fba48e699b31865556b636e5ff59
08 Box Of Rain.flac:9499b6685245aaba1d04463b8e33f413
09 Iko-Iko.flac:81adea2742bcad8a9ed20169d4b4ba1f
10 Long Way To Go Home.flac:01378b470c6a3a8f390bf837bbfc9d9b
11 Corrina.flac:9caf66d2773e52f749cb8ae7b2ef30bc
12 Drumz.flac:1529ee93115518ffc79caa4587b230ce
13 Space.flac:8a1bdfc3c626a9c34fac8bd04ea12126
14 The Last Time.flac:01eaf460059fe9d850c52bc25d820154
15 The Days Between.flac:604eafb8310bd3eb734ccfff7016052f
16 Around & Around.flac:0511f388ceaac8ba5b4028955a03c11f
17 Liberty.flac:d52f140a372444403a26321992a091c4
flac-md5
3b92c0cea962bcfb12d17df692f11791 *01 Here Comes Sunshine.flac
4a529f78e86ba822718a1480e8f3738b *02 Walking Blues.flac
5efb7757487192c3e59e5a16c1984d5e *03 Jack A Roe.flac
fddb128413e038700c52c269ab7c23dd *04 Black Throated Wind.flac
47e4de4724c8fc117f760c3e040dab9e *05 Tom Thumb Blues.flac
07a2716d3997e83b80d2332a2dd6e5d5 *06 Ramble On Rose.flac
fc1c5090afd83be01b96b98301428d08 *07 Let It Grow.flac
6b6c46934aab34ece4dabb2b6104d939 *08 Box Of Rain.flac
7f0738cdc7f8ea9a7c012cedeade382c *09 Iko-Iko.flac
5eb8115967c132ece05e76f30056e931 *10 Long Way To Go Home.flac
c90fec1d68200c6011e1c0ece9d8daf7 *11 Corrina.flac
d417f5e9ed3bb961325bc8cd33b6c4e5 *12 Drumz.flac
f4d06a1cf925236564be69c8470668f2 *13 Space.flac
abee84fc732ec3151ac23f5039876f78 *14 The Last Time.flac
2d2f56b7df9eb2c892a58ae2e7c97f5b *15 The Days Between.flac
737e0a784b7e5254f6eb3bf2a7e03661 *16 Around & Around.flac
0616fe72e64d018e1cbbb54eb752bb20 *17 Liberty.flac

Comments
Add Comment
Other Sources (comments)
Shure BG-40/Sony D-7... (0) flac16/48kHz; Master... (0) flac16; Master... (0) flac24; Master... (0) flac16; Master... (0) flac16; Source: Sony... (1)
Date User Comment