Browse Collections Artists Sources   Search Dates

Add Show    List Management    Help


Grateful Dead 02/27/81
Uptown Theater, Chicago, IL
Comments Add Comment    Source Collectors    Add to Collection    Add to Want List    History
Source # 139731 Other Sources
Entered by Matt Vernon
Checksums ffp , flac-md5
Disc Counts 0 / 0
Media Size
Date Circulated
Date Added
11/07/2017
11/07/2017
Source Summary flac16; Source Info: Frank Streeter's Master FOB Audience Cassette; Beyer M160 (patched out of Rip Thompkins)> Sony TC-D5M (Maxell MX90); Transfer Info: Cassette Master (Nakamichi CR-7A)> Tascam DA-3000 (DSF 1-bit/5.8 MHz)> KORG AudioGate 4 > Adobe Audition 3.0> TLH flac2496; Transfer by Charlie Miller; Mastered by Scott Clugston 
  Archive
Source Information - Download Text | Download Zip
Grateful Dead
Uptown Theatre
Chicago, IL
Friday February 27, 1981

This is a 16/44 fileset. 24 Bit -> 16 Bit via dBpoweramp

Source Info:
Frank Streeter's Master FOB Audience Cassette; Beyer M160 (patched out of Rip Thompkins)> Sony TC-D5M (Maxell MX90)

Transfer Info:
Cassette Master (Nakamichi CR-7A)> Tascam DA-3000 (DSF 1-bit/5.8 MHz)> KORG AudioGate 4 > Adobe Audition 3.0> TLH flac2496

Transfer by Charlie Miller
Mastered by Scott Clugston
11/6/17

Notes:
- Thanks to Rip Thompkins for the patch
- Thanks to Frank Streeter for the source cassettes
- Thanks to Charlie Miller for the transfer
- Between song transitions smoothed
- Thanks to the folks responsible for Barry Glassberg's Nak700 source, shnid20344, which supplies the crowd/tuning between "Loser" and "CC Rider", the final 0:48 of "Fire On The Mountain", the first 0:10 of "Estimated Prophet", as well as the patch in "Drums" from 13:43 thru 15:08

Set One:
t01. Crowd/tuning
t02. Alabama Getaway ->
t03. The Promised Land
t04. Friend Of The Devil
t05. Crowd/tuning
t06. Cassidy
t07. Loser
t08. CC Rider
t09. It Must Have Been The Roses
t10. New Minglewood Blues

Set Two:
t11. Crowd/tuning
t12. Scarlet Begonias ->
t13. Fire On The Mountain ->
t14. Estimated Prophet ->
t15. Eyes Of The World ->
t16. Drums  ->
t17. Space ->
t18. Not Fade Away ->
t19. Wharf Rat ->
t20. Sugar Magnolia
Encore:
t21. Don't Ease Me In


    length     expanded size    cdr  WAVE problems  fmt   ratio  filename
     2:14.11       23663516 B   ---   --   ---xx   flac  0.5151  gd81-02-27 t01 Crowd.flac
     4:21.54       46167452 B   ---   --   ---xx   flac  0.6038  gd81-02-27 t02 Alabama Getaway.flac
     4:08.67       43904828 B   ---   --   ---xx   flac  0.6189  gd81-02-27 t03 Promised Land.flac
     8:54.31       94270556 B   ---   --   ---xx   flac  0.5707  gd81-02-27 t04 Friend Of The Devil.flac
     2:45.68       29265980 B   ---   --   ---xx   flac  0.5144  gd81-02-27 t05 Crowd.flac
     6:28.39       68534972 B   ---   --   ---xx   flac  0.5912  gd81-02-27 t06 Cassidy.flac
     9:33.14      101110172 B   ---   --   ---xx   flac  0.5715  gd81-02-27 t07 Loser.flac
     8:03.62       85347068 B   ---   --   ---xx   flac  0.5933  gd81-02-27 t08 CC Rider.flac
     5:54.39       62537372 B   ---   --   ---xx   flac  0.5539  gd81-02-27 t09 It Must Have Been The Roses.flac
     7:06.22       75198188 B   ---   --   ---xx   flac  0.6131  gd81-02-27 t10 New Minglewood Blues.flac
     1:06.21       11691836 B   ---   --   ---xx   flac  0.5606  gd81-02-27 t11 Crowd.flac
    12:09.48      128708540 B   ---   --   ---xx   flac  0.6404  gd81-02-27 t12 Scarlet Begonias.flac
    11:57.37      126565868 B   ---   --   ---xx   flac  0.6451  gd81-02-27 t13 Fire On The Mountain.flac
    11:11.37      118451468 B   ---   --   ---xx   flac  0.6314  gd81-02-27 t14 Estimated Prophet.flac
     9:03.32       95860508 B   ---   --   ---xx   flac  0.6425  gd81-02-27 t15 Eyes Of The World.flac
    16:23.02      173405948 B   ---   --   ---xx   flac  0.5799  gd81-02-27 t16 Drums.flac
     5:22.61       56944316 B   ---   --   ---xx   flac  0.5674  gd81-02-27 t17 Space.flac
     8:52.27       93908348 B   ---   --   ---xx   flac  0.6372  gd81-02-27 t18 Not Fade Away.flac
    10:55.17      115582028 B   ---   --   ---xx   flac  0.6226  gd81-02-27 t19 Wharf Rat.flac
     8:34.14       90702572 B   ---   --   ---xx   flac  0.6573  gd81-02-27 t20 Sugar Magnolia.flac
     3:26.48       36451340 B   ---   --   ---xx   flac  0.6420  gd81-02-27 t21 Don't Ease Me In.flac
   158:34.01     1678272876 B                            0.6080  (21 files)

No errors occured.


Show Checksums
ffp
gd81-02-27 t01 Crowd.flac:f41d2fd369e63518662360492bd92849
gd81-02-27 t02 Alabama Getaway.flac:4c02105ef95a48169ac6f75e5d27bbe9
gd81-02-27 t03 Promised Land.flac:66ce9d1c82d31ee49f399097b9f771c4
gd81-02-27 t04 Friend Of The Devil.flac:1e0d2850174bd49c7d9f23ddc25505ac
gd81-02-27 t05 Crowd.flac:79b88814bb2b2f9706f1bdf1dd93a58d
gd81-02-27 t06 Cassidy.flac:6050744149fa6106f21e82d179dff727
gd81-02-27 t07 Loser.flac:5b7ce535aaeab0d4840acaa71d3a1d45
gd81-02-27 t08 CC Rider.flac:30d47824617cbcb0cf51567a85b05ece
gd81-02-27 t09 It Must Have Been The Roses.flac:83ef25539f34d67dc6603789cd1551cd
gd81-02-27 t10 New Minglewood Blues.flac:6404ea444834ad6b408627fe0e1c7a63
gd81-02-27 t11 Crowd.flac:d0a71ecbe2c0b32e476757815e028aab
gd81-02-27 t12 Scarlet Begonias.flac:9cc8fd6e5fc91f0d751cd74beddd1ccb
gd81-02-27 t13 Fire On The Mountain.flac:a4ca22c0a4f967d885507a0532f0dbe4
gd81-02-27 t14 Estimated Prophet.flac:6bd2d4b35d670e116638207bfa3d4c42
gd81-02-27 t15 Eyes Of The World.flac:78f651aa4077c54b6c7ed4a9c0978ee5
gd81-02-27 t16 Drums.flac:b3ccf37a1e032eae20767c71e69744c2
gd81-02-27 t17 Space.flac:d9657f7a9cecbe8c8564cf441c179fd3
gd81-02-27 t18 Not Fade Away.flac:a99c23a5b93702bbf21e75ccb8589b6d
gd81-02-27 t19 Wharf Rat.flac:7636ebe24169216fa6c02df6cfa40a4a
gd81-02-27 t20 Sugar Magnolia.flac:257838ffe4b750403b1a41cdc04405ac
gd81-02-27 t21 Don't Ease Me In.flac:34c41a3f335ef9fe0ae4a618d6e8be9b
flac-md5
84a72c580d5306726d8949778c221080 *gd81-02-27 t01 Crowd.flac
f30b531c96549fcee4fd6b58b007af8f *gd81-02-27 t02 Alabama Getaway.flac
2dd06d87bbf3a5781d98610110e97faf *gd81-02-27 t03 Promised Land.flac
792f53f62c83a41b5e84608bc9d005d2 *gd81-02-27 t04 Friend Of The Devil.flac
886d0077fec86eb941afb7c223ab9a03 *gd81-02-27 t05 Crowd.flac
cafbeadca0e73dbefb4f7e23eeea8763 *gd81-02-27 t06 Cassidy.flac
20c80a6b77d4dcb7b452334eac38564b *gd81-02-27 t07 Loser.flac
1ff5304e5427ea7cd1825a1aaf67ecb9 *gd81-02-27 t08 CC Rider.flac
f1d5fe6e6eb0875cc73d75c49e24dc61 *gd81-02-27 t09 It Must Have Been The Roses.flac
33afb87dd3c3caf93b6fd276d5a235fb *gd81-02-27 t10 New Minglewood Blues.flac
2dbe65b5746acfb4db7a386595ab2abb *gd81-02-27 t11 Crowd.flac
92a00f23eb4e770b57cc3e66940c388f *gd81-02-27 t12 Scarlet Begonias.flac
2f36e2cfa809c37d6ab34e0b7e0041df *gd81-02-27 t13 Fire On The Mountain.flac
bf0e07e2528659b6bc7ee6e5110c1d79 *gd81-02-27 t14 Estimated Prophet.flac
70e9653e86f4bddd8b1632c1562f3ab7 *gd81-02-27 t15 Eyes Of The World.flac
4030b1393a6d7c537c78244d13e92fbd *gd81-02-27 t16 Drums.flac
3f90311988c1e17a7a02d00705ebd41b *gd81-02-27 t17 Space.flac
cf15dc19ea7eee1b6daa854ba397a86f *gd81-02-27 t18 Not Fade Away.flac
c5d585f2f2a17eb277467522eb82cf28 *gd81-02-27 t19 Wharf Rat.flac
2bbdd5aa3ee3b03575b3d5c191958de9 *gd81-02-27 t20 Sugar Magnolia.flac
5b0cf98d51fb5143ea6124058dd18fb8 *gd81-02-27 t21 Don't Ease Me In.flac

Comments
Add Comment
Other Sources (comments)
SBD > Cassette master >... (1) Taped by Barry Glassberg:... (0) flac16; SBD/AUD... (1) flac24; Recorded 1st... (0) flac16; Recorded By... (0) flac16; Matrix by... (0) flac24; Source Info:... (0)
Date User Comment