Browse Collections Artists Sources   Search Dates

Add Show    List Management    Help


Grateful Dead 02/27/81
Uptown Theater, Chicago, IL
Comments Add Comment    Source Collectors    Add to Collection    Add to Want List    History
Source # 139732 Other Sources
Entered by Matt Vernon
Checksums ffp , flac-md5
Disc Counts 0 / 0
Media Size
Date Circulated
Date Added
11/07/1981
11/07/2017
Source Summary flac24; Source Info: Frank Streeter's Master FOB Audience Cassette; Beyer M160 (patched out of Rip Thompkins)> Sony TC-D5M (Maxell MX90); Transfer Info: Cassette Master (Nakamichi CR-7A) > Tascam DA-3000 (DSF 1-bit/5.8 MHz)> KORG AudioGate 4 > Adobe Audition 3.0> TLH flac2496; Transfer by Charlie Miller; Mastered by Scott Clugston 
  Archive
Source Information - Download Text | Download Zip
Grateful Dead
Uptown Theatre
Chicago, IL
Friday February 27, 1981

Source Info:
Frank Streeter's Master FOB Audience Cassette; Beyer M160 (patched out of Rip Thompkins)> Sony TC-D5M (Maxell MX90)

Transfer Info:
Cassette Master (Nakamichi CR-7A) > Tascam DA-3000 (DSF 1-bit/5.8 MHz)> KORG AudioGate 4 > Adobe Audition 3.0> TLH flac2496

Transfer by Charlie Miller
Mastered by Scott Clugston
11/6/17

Notes:
- Thanks to Rip Thompkins for the patch
- Thanks to Frank Streeter for the source cassettes
- Thanks to Charlie Miller for the transfer
- Between song transitions smoothed
- Thanks to the folks responsible for Barry Glassberg's Nak700 source, shnid20344, which supplies the crowd/tuning between "Loser" and "CC Rider", the final 0:48 of "Fire On The Mountain", the first 0:10 of "Estimated Prophet", as well as the patch in "Drums" from 13:43 thru 15:08


Set One:
t01. Crowd/tuning
t02. Alabama Getaway ->
t03. The Promised Land
t04. Friend Of The Devil
t05. Crowd/tuning
t06. Cassidy
t07. Loser
t08. CC Rider
t09. It Must Have Been The Roses
t10. New Minglewood Blues

Set Two:
t11. Crowd/tuning
t12. Scarlet Begonias ->
t13. Fire On The Mountain ->
t14. Estimated Prophet ->
t15. Eyes Of The World ->
t16. Drums  ->
t17. Space ->
t18. Not Fade Away ->
t19. Wharf Rat ->
t20. Sugar Magnolia
Encore:
t21. Don't Ease Me In



    length     expanded size    cdr  WAVE problems  fmt   ratio  filename
     2:14.147      77268524 B   cxx   --   ---xx   flac  0.6398  gd81-02-27 t01 Crowd.flac
     4:21.720     150750764 B   cxx   --   ---xx   flac  0.6713  gd81-02-27 t02 Alabama Getaway.flac
     4:08.893     143362604 B   cxx   --   ---xx   flac  0.6764  gd81-02-27 t03 Promised Land.flac
     8:54.413     307822124 B   cxx   --   ---xx   flac  0.6609  gd81-02-27 t04 Friend Of The Devil.flac
     2:45.907      95562284 B   cxx   --   ---xx   flac  0.6436  gd81-02-27 t05 Crowd.flac
     6:28.520     223787564 B   cxx   --   ---xx   flac  0.6677  gd81-02-27 t06 Cassidy.flac
     9:33.187     330155564 B   cxx   --   ---xx   flac  0.6598  gd81-02-27 t07 Loser.flac
     8:03.827     278684204 B   cxx   --   ---xx   flac  0.6694  gd81-02-27 t08 CC Rider.flac
     5:54.520     204203564 B   cxx   --   ---xx   flac  0.6562  gd81-02-27 t09 It Must Have Been The Roses.flac
     7:06.296     245546366 B   cxx   --   ---xx   flac  0.6757  gd81-02-27 t10 New Minglewood Blues.flac
     1:06.280      38177324 B   cxx   --   ---xx   flac  0.6604  gd81-02-27 t11 Crowd.flac
    12:09.640     420272684 B   cxx   --   ---xx   flac  0.6862  gd81-02-27 t12 Scarlet Begonias.flac
    11:57.493     413276204 B   cxx   --   ---xx   flac  0.6827  gd81-02-27 t13 Fire On The Mountain.flac
    11:11.493     386780204 B   cxx   --   ---xx   flac  0.6818  gd81-02-27 t14 Estimated Prophet.flac
     9:03.427     313013804 B   cxx   --   ---xx   flac  0.6867  gd81-02-27 t15 Eyes Of The World.flac
    16:23.027     566223404 B   cxx   --   ---xx   flac  0.6575  gd81-02-27 t16 Drums.flac
     5:22.813     185940524 B   cxx   --   ---xx   flac  0.6644  gd81-02-27 t17 Space.flac
     8:52.360     306639404 B   cxx   --   ---xx   flac  0.6855  gd81-02-27 t18 Not Fade Away.flac
    10:55.227     377410604 B   cxx   --   ---xx   flac  0.6808  gd81-02-27 t19 Wharf Rat.flac
     8:34.187     296171564 B   cxx   --   ---xx   flac  0.6921  gd81-02-27 t20 Sugar Magnolia.flac
     3:26.625     119015858 B   cxx   --   ---xx   flac  0.6845  gd81-02-27 t21 Don't Ease Me In.flac
   158:34.000    5480065140 B                            0.6734  (21 files)

No errors occured.


Show Checksums
ffp
gd81-02-27 t01 Crowd.flac:fb58c6043bd4a054fa4f062721da3c39
gd81-02-27 t02 Alabama Getaway.flac:25c533382c4924b420852a3ab4f0d9b3
gd81-02-27 t03 Promised Land.flac:1ea1ba6498c82bb2861e76e2539ccc17
gd81-02-27 t04 Friend Of The Devil.flac:dd5d5e4d5d69c7ea87718d9f47011bf5
gd81-02-27 t05 Crowd.flac:70a0b5c670782dc4c2ce2bc5b5c48609
gd81-02-27 t06 Cassidy.flac:e6a1a41f205d2e195c07c2b3b44edf2e
gd81-02-27 t07 Loser.flac:5952a0832c764c653c83ae221e23bc62
gd81-02-27 t08 CC Rider.flac:b4ff56e043563a134594702b50ee2499
gd81-02-27 t09 It Must Have Been The Roses.flac:70e731bfcd551b88f1d27467a753a830
gd81-02-27 t10 New Minglewood Blues.flac:b5061700ad9d1daf2caa9727616425c5
gd81-02-27 t11 Crowd.flac:8dc9ae337969f112257f0a0460c7557e
gd81-02-27 t12 Scarlet Begonias.flac:fb913596287248f9deef47a895aef7b7
gd81-02-27 t13 Fire On The Mountain.flac:28441a5ffe158a5c6449101385a54151
gd81-02-27 t14 Estimated Prophet.flac:710385e8e5128538a404b809295e3c5a
gd81-02-27 t15 Eyes Of The World.flac:cdd8c30292280b2145cd4804eb0a64a8
gd81-02-27 t16 Drums.flac:046265b63c8e7b6505fd5a8e6f2007ee
gd81-02-27 t17 Space.flac:fe068dc19b08db19ba3ee16a6f1a05c1
gd81-02-27 t18 Not Fade Away.flac:ef7871bb1765a710f690b649a8a4f208
gd81-02-27 t19 Wharf Rat.flac:dab77a74ed2dbad256fe87157af263f2
gd81-02-27 t20 Sugar Magnolia.flac:3fad0adae85022183968379e27192645
gd81-02-27 t21 Don't Ease Me In.flac:bdd45ab258edf49661db69590644338a
flac-md5
6b9a14d241efd47c7dcbe9164a501ba6 *gd81-02-27 t01 Crowd.flac
42539b0926802ec4a2763c84f4a70527 *gd81-02-27 t02 Alabama Getaway.flac
38dfdef627223ae21aec6d7b2e889c84 *gd81-02-27 t03 Promised Land.flac
b820daad36ad136ad862aea5a3527509 *gd81-02-27 t04 Friend Of The Devil.flac
c0e195f65f04c19bd5571ca3e8f14e52 *gd81-02-27 t05 Crowd.flac
e9f889e8c39d933d5d26cc7295dd90bb *gd81-02-27 t06 Cassidy.flac
acf15e2d58daa5cee0a7e9820d5d0dc4 *gd81-02-27 t07 Loser.flac
39cfd9ae780bc83bf58471f9f002824e *gd81-02-27 t08 CC Rider.flac
0ac5b6564fd82fde266c6da3a56e19af *gd81-02-27 t09 It Must Have Been The Roses.flac
547ec3bcd356e408d2869d0cbe28fd64 *gd81-02-27 t10 New Minglewood Blues.flac
4906a2790f1c5130a8c63ca9bb231091 *gd81-02-27 t11 Crowd.flac
a6fc491d65e7917b1ef36a82b6d4e6b8 *gd81-02-27 t12 Scarlet Begonias.flac
c4cdcb829facebd4a63c8aff751c6fee *gd81-02-27 t13 Fire On The Mountain.flac
aa47c0ef0a1a8684a4679b67c6de8865 *gd81-02-27 t14 Estimated Prophet.flac
b523ce38b455fba2520e3324d70f368c *gd81-02-27 t15 Eyes Of The World.flac
0d0c9b00231405288813c3f7db1b6f6c *gd81-02-27 t16 Drums.flac
4f55971cf9907829c7dba617f1aaa73b *gd81-02-27 t17 Space.flac
fb2e0198f52eef6606277255d1a8b165 *gd81-02-27 t18 Not Fade Away.flac
d16e40a0df21c98feab9ea521eaad4ac *gd81-02-27 t19 Wharf Rat.flac
9dd8afbcfe552bad479d6d9eae4b01b3 *gd81-02-27 t20 Sugar Magnolia.flac
fe04f8c1cf63bcb069e4bf50e650a6b5 *gd81-02-27 t21 Don't Ease Me In.flac

Comments
Add Comment
Other Sources (comments)
SBD > Cassette master >... (1) Taped by Barry Glassberg:... (0) flac16; SBD/AUD... (1) flac24; Recorded 1st... (0) flac16; Recorded By... (0) flac16; Matrix by... (0) flac16; Source Info:... (0)
Date User Comment