Browse Collections Artists Sources   Search Dates

Add Show    List Management    Help


Grateful Dead 03/02/81
Cleveland Music Hall, Cleveland, OH
Comments Add Comment    Source Collectors    Add to Collection    Add to Want List    History
Source # 139733 Other Sources
Entered by Matt Vernon
Checksums ffp , flac-md5
Disc Counts 0 / 0
Media Size
Date Circulated
Date Added
11/07/2017
11/07/2017
Source Summary flac16; Source Info: Frank Streeter's Master FOB Audience Cassette; Nakamichi CM-700 > Sony TC-D5M (Maxell MX90); Transfer Info: Cassette Master (Nakamichi CR-7A) > Tascam DA-3000 (DSF 1-bit/5.8 MHz)> KORG AudioGate 4 > Adobe Audition 3.0> TLH flac2496; Transfer by Charlie Miller; Mastered by Scott Clugston 
  Archive
Source Information - Download Text | Download Zip
Grateful Dead
Cleveland Music Hall
Cleveland, OH
Monday March 2, 1981

This is a 16/44 fileset. 24 bit -> 16 bit via dBpoweramp

Source Info:
Frank Streeter's Master FOB Audience Cassette; Nakamichi CM-700 > Sony TC-D5M (Maxell MX90)

Transfer Info:
Cassette Master (Nakamichi CR-7A) > Tascam DA-3000 (DSF 1-bit/5.8 MHz)> KORG AudioGate 4 > Adobe Audition 3.0> TLH flac2496

Transfer by Charlie Miller
Mastered by Scott Clugston
11/7/17

Notes:
- Thanks to Frank Streeter for the source cassettes
- Thanks to Charlie Miller for the transfer
- Thanks to the folks responsible for the motb nak700 shnid89129 source, which supplies the final 0:03 of "Althea", the crowd/tuning between "Althea" and "El Paso", the first 0:04 of "El Paso", the patch in "Playing In The Band" from 7:25 thru 7:39, the final 0:04 of "The Wheel", as well as the first 0:11 of the transition into "Around & Around"
- Between song transitions smoothed

Set One:
t01. Crowd/tuning
t02. Shakedown Street
t03. New Minglewood Blues
t04. Dire Wolf
t05. Cassidy
t06. Althea
t07. El Paso
t08. Jack-A-Roe
t09. Lazy Lightning ->
t10. Supplication
t11. Don't Ease Me In->
t12. Promised Land

Set Two:
t13. Crowd/tuning
t14. Ramble On Rose
t15. Playing In The Band ->
t16. China Doll ->
t17. Playing In The Band Jam ->
t18. Drums  ->
t19. Space ->
t20. Playing In The Band Jam ->
t21. Playing In The Band Reprise ->
t22. Wheel ->
t23. Around & Around ->
t24. Johnny B. Goode
Encore:
t25. US Blues


    length     expanded size    cdr  WAVE problems  fmt   ratio  filename
     1:27.16       15384476 B   ---   --   ---xx   flac  0.5477  gd81-03-02 s1 t01 Crowd.flac
    13:13.05      139897004 B   ---   --   ---xx   flac  0.5836  gd81-03-02 s1 t02 Shakedown Street.flac
     7:58.06       84333356 B   ---   --   ---xx   flac  0.5993  gd81-03-02 s1 t03 New Minglewood Blues.flac
     3:31.17       37260428 B   ---   --   ---xx   flac  0.6025  gd81-03-02 s1 t04 Dire Wolf.flac
     5:51.12       61944668 B   ---   --   ---xx   flac  0.6023  gd81-03-02 s1 t05 Cassidy.flac
     8:31.74       90314492 B   ---   --   ---xx   flac  0.5908  gd81-03-02 s1 t06 Althea.flac
     5:30.71       58379036 B   ---   --   ---xx   flac  0.5893  gd81-03-02 s1 t07 El Paso.flac
     5:07.44       54258332 B   ---   --   ---xx   flac  0.5881  gd81-03-02 s1 t08 Jack-A-Roe.flac
     3:22.73       35804540 B   ---   --   ---xx   flac  0.6141  gd81-03-02 s1 t09 Lazy Lightning.flac
     7:27.21       78900236 B   ---   --   ---xx   flac  0.6053  gd81-03-02 s1 t10 Supplication.flac
     3:11.59       33831212 B   ---   --   ---xx   flac  0.6142  gd81-03-02 s1 t11 Don't Ease Me In.flac
     4:28.18       47317580 B   ---   --   ---xx   flac  0.6222  gd81-03-02 s1 t12 Promised Land.flac
     0:44.66        7916876 B   ---   --   ---xx   flac  0.5857  gd81-03-02 s2 t01 Crowd.flac
     7:40.33       81221660 B   ---   --   ---xx   flac  0.5905  gd81-03-02 s2 t02 Ramble On Rose.flac
    12:33.72      132998588 B   ---   --   ---xx   flac  0.6191  gd81-03-02 s2 t03 Playing In The Band.flac
     5:22.60       56941964 B   ---   --   ---xx   flac  0.5492  gd81-03-02 s2 t04 China Doll.flac
     3:31.13       37251020 B   ---   --   ---xx   flac  0.5963  gd81-03-02 s2 t05 Playing In The Band Jam.flac
    11:53.39      125864972 B   ---   --   ---xx   flac  0.5828  gd81-03-02 s2 t06 Drums.flac
     8:08.24       86139692 B   ---   --   ---xx   flac  0.5458  gd81-03-02 s2 t07 Space.flac
     2:47.64       29609372 B   ---   --   ---xx   flac  0.5970  gd81-03-02 s2 t08 Playing In The Band Jam.flac
     2:22.57       25182908 B   ---   --   ---xx   flac  0.6258  gd81-03-02 s2 t09 Playing In The Band.flac
     7:00.45       74193884 B   ---   --   ---xx   flac  0.5907  gd81-03-02 s2 t10 The Wheel.flac
     3:54.61       41421116 B   ---   --   ---xx   flac  0.6166  gd81-03-02 s2 t11 Around & Around.flac
     4:44.38       50187020 B   ---   --   ---xx   flac  0.6451  gd81-03-02 s2 t12 Johnny B. Goode.flac
     5:34.66       59072876 B   ---   --   ---xx   flac  0.6349  gd81-03-02 s2 t13 US Blues.flac
   146:02.04     1545627308 B                            0.5962  (25 files)

No errors occured.


Show Checksums
ffp
gd81-03-02 s1 t01 Crowd.flac:5249a6a85e4c0ff0493353c516c29310
gd81-03-02 s1 t02 Shakedown Street.flac:b08790daf845f5338baa3c62956a4327
gd81-03-02 s1 t03 New Minglewood Blues.flac:bca60cb1444a2822d0e6929ab6c51fd2
gd81-03-02 s1 t04 Dire Wolf.flac:f188276644b611de05af418fbf1c854e
gd81-03-02 s1 t05 Cassidy.flac:efb1d8d8878af19437b5d97c7d35de99
gd81-03-02 s1 t06 Althea.flac:3a03b7b965c176e3288f44b41c42b917
gd81-03-02 s1 t07 El Paso.flac:4e2601a6f5634398fe8970740c06e384
gd81-03-02 s1 t08 Jack-A-Roe.flac:7dedae06a7f630957bce78af8b9fe5cd
gd81-03-02 s1 t09 Lazy Lightning.flac:8996af8959af21de52b46d1b5cd5b7f3
gd81-03-02 s1 t10 Supplication.flac:68b31f959c2704dc7c89a76d2880ea0e
gd81-03-02 s1 t11 Don't Ease Me In.flac:d3f3c972b9cfdd77dedf26031da38086
gd81-03-02 s1 t12 Promised Land.flac:14de59d205e7d35345845067922c6b4c
gd81-03-02 s2 t01 Crowd.flac:3d680e7c25854fdc96610a8b27dd350e
gd81-03-02 s2 t02 Ramble On Rose.flac:76df91fd2d45d3f35979cc0bde565913
gd81-03-02 s2 t03 Playing In The Band.flac:d4c6e98d5f6c73b334a035749de43bb7
gd81-03-02 s2 t04 China Doll.flac:b38fbd37a8b09fa0151c071f0f8df149
gd81-03-02 s2 t05 Playing In The Band Jam.flac:415015fc4e1af9b37237c9749327ce4e
gd81-03-02 s2 t06 Drums.flac:ae1de42094293291a5000a6e18c5990b
gd81-03-02 s2 t07 Space.flac:461ed5354e749d7cce1b1bed397ee735
gd81-03-02 s2 t08 Playing In The Band Jam.flac:c5793626ecd4f32b316cd1fb97e67371
gd81-03-02 s2 t09 Playing In The Band.flac:da1638a6fdc73455a8df999f418948c2
gd81-03-02 s2 t10 The Wheel.flac:8d5dd117657fa3ff1fb882b577f28e53
gd81-03-02 s2 t11 Around & Around.flac:884155b0bb0c670413f3793d4381e470
gd81-03-02 s2 t12 Johnny B. Goode.flac:f286a925fb0306e8b6e4dbcfc277ab11
gd81-03-02 s2 t13 US Blues.flac:536a8994a375fdcdaa55d771b94d8ad2
flac-md5
66e7b176342059f8223ac4e8ba42584e *gd81-03-02 s1 t01 Crowd.flac
a3e07f0296b96a3384dd0747385f168b *gd81-03-02 s1 t02 Shakedown Street.flac
1008cfe6edf73544bd4209e6ac7d926d *gd81-03-02 s1 t03 New Minglewood Blues.flac
dcd70b13bf297ad4eedc5606b6f29d5d *gd81-03-02 s1 t04 Dire Wolf.flac
c5d8374d05d310f56da74c72618c4e29 *gd81-03-02 s1 t05 Cassidy.flac
aefac1accb06bfe3ea931c90561e1f98 *gd81-03-02 s1 t06 Althea.flac
e6b433dd6a89a25f6190606d4f5bc021 *gd81-03-02 s1 t07 El Paso.flac
f72ca60c7c88807f18f71b46b8e9a687 *gd81-03-02 s1 t08 Jack-A-Roe.flac
9444f9f41f2b35f450e26791d45e68c4 *gd81-03-02 s1 t09 Lazy Lightning.flac
f5d33abd11696dc87ca27c1fc96bc7fa *gd81-03-02 s1 t10 Supplication.flac
7ca8e704d15b9b81e4beca5467c90756 *gd81-03-02 s1 t11 Don't Ease Me In.flac
67cf1dac7a76471a9c0c1545dcc8d38a *gd81-03-02 s1 t12 Promised Land.flac
ff8d228b719d96e54f8d9af15f49f7e3 *gd81-03-02 s2 t01 Crowd.flac
53ca3c9838c65e49ab6b7450feb3518d *gd81-03-02 s2 t02 Ramble On Rose.flac
162515666b47686fcfbf1457170458ce *gd81-03-02 s2 t03 Playing In The Band.flac
19d813bfb14de5df010ba7e862a3f9a5 *gd81-03-02 s2 t04 China Doll.flac
29d0f5442b00460472cfd7463d3fb32b *gd81-03-02 s2 t05 Playing In The Band Jam.flac
b9f9d37ff0599b6b25f355462cc7e9fd *gd81-03-02 s2 t06 Drums.flac
9b05b0352ba2293593031ef5fb3f4a6c *gd81-03-02 s2 t07 Space.flac
61342db8b37e9e78014238ce8695e654 *gd81-03-02 s2 t08 Playing In The Band Jam.flac
9b290a5b9f2025aedbdc5c6388ec4790 *gd81-03-02 s2 t09 Playing In The Band.flac
9f947bf1b49b86e3338f0ae4c60148ff *gd81-03-02 s2 t10 The Wheel.flac
8c441e423b99245977a720ae01067a71 *gd81-03-02 s2 t11 Around & Around.flac
a8016f5041a27619190d4fad398d58fd *gd81-03-02 s2 t12 Johnny B. Goode.flac
de20286b94f9d144b911538873c76c6a *gd81-03-02 s2 t13 US Blues.flac

Comments
Add Comment
Other Sources (comments)
Recording by Bob Wagner:... (0) flac16; Recording by... (0) flac16; Recording by... (1) flac24; Recording by... (1) flac16; Recording... (0) flac24/96; Recording... (1) flac16; Recording... (0) flac24; Source Info:... (0)
Date User Comment