Browse Collections Artists Sources   Search Dates

Add Show    List Management    Help


Grateful Dead 03/02/81
Cleveland Music Hall, Cleveland, OH
Comments Add Comment    Source Collectors    Add to Collection    Add to Want List    History
Source # 139734 Other Sources
Entered by Matt Vernon
Checksums ffp , flac-md5
Disc Counts 0 / 0
Media Size
Date Circulated
Date Added
11/07/2017
11/07/2017
Source Summary flac24; Source Info: Frank Streeter's Master FOB Audience Cassette; Nakamichi CM-700 > Sony TC-D5M (Maxell MX90); Transfer Info: Cassette Master (Nakamichi CR-7A) > Tascam DA-3000 (DSF 1-bit/5.8 MHz)> KORG AudioGate 4 > Adobe Audition 3.0> TLH flac2496; Transfer by Charlie Miller; Mastered by Scott Clugston 
  Archive
Source Information - Download Text | Download Zip
Grateful Dead
Cleveland Music Hall
Cleveland, OH
Monday March 2, 1981

Source Info:
Frank Streeter's Master FOB Audience Cassette; Nakamichi CM-700 > Sony TC-D5M (Maxell MX90)

Transfer Info:
Cassette Master (Nakamichi CR-7A) > Tascam DA-3000 (DSF 1-bit/5.8 MHz)> KORG AudioGate 4 > Adobe Audition 3.0> TLH flac2496

Transfer by Charlie Miller
Mastered by Scott Clugston
11/7/17

Notes:
- Thanks to Frank Streeter for the source cassettes
- Thanks to Charlie Miller for the transfer
- Thanks to the folks responsible for the motb nak700 shnid89129 source, which supplies the final 0:03 of "Althea", the crowd/tuning between "Althea" and "El Paso", the first 0:04 of "El Paso", the patch in "Playing In The Band" from 7:25 thru 7:39, the final 0:04 of "The Wheel", as well as the first 0:11 of the transition into "Around & Around"
- Between song transitions smoothed

Set One:
t01. Crowd/tuning
t02. Shakedown Street
t03. New Minglewood Blues
t04. Dire Wolf
t05. Cassidy
t06. Althea
t07. El Paso
t08. Jack-A-Roe
t09. Lazy Lightning ->
t10. Supplication
t11. Don't Ease Me In->
t12. Promised Land

Set Two:
t13. Crowd/tuning
t14. Ramble On Rose
t15. Playing In The Band ->
t16. China Doll ->
t17. Playing In The Band Jam ->
t18. Drums  ->
t19. Space ->
t20. Playing In The Band Jam ->
t21. Playing In The Band Reprise ->
t22. Wheel ->
t23. Around & Around ->
t24. Johnny B. Goode
Encore:
t25. US Blues


    length     expanded size    cdr  WAVE problems  fmt   ratio  filename
     1:27.213      50234924 B   cxx   --   ---xx   flac  0.6475  gd81-03-02 s1 t01 Crowd.flac
    13:13.067     456806444 B   cxx   --   ---xx   flac  0.6708  gd81-03-02 s1 t02 Shakedown Street.flac
     7:58.080     275374124 B   cxx   --   ---xx   flac  0.6762  gd81-03-02 s1 t03 New Minglewood Blues.flac
     3:31.227     121666604 B   cxx   --   ---xx   flac  0.6771  gd81-03-02 s1 t04 Dire Wolf.flac
     5:51.160     202268204 B   cxx   --   ---xx   flac  0.6769  gd81-03-02 s1 t05 Cassidy.flac
     8:31.987     294904364 B   cxx   --   ---xx   flac  0.6716  gd81-03-02 s1 t06 Althea.flac
     5:30.947     190625324 B   cxx   --   ---xx   flac  0.6726  gd81-03-02 s1 t07 El Paso.flac
     5:07.587     177169964 B   cxx   --   ---xx   flac  0.6690  gd81-03-02 s1 t08 Jack-A-Roe.flac
     3:22.973     116912684 B   cxx   --   ---xx   flac  0.6772  gd81-03-02 s1 t09 Lazy Lightning.flac
     7:27.280     257633324 B   cxx   --   ---xx   flac  0.6744  gd81-03-02 s1 t10 Supplication.flac
     3:11.787     110469164 B   cxx   --   ---xx   flac  0.6778  gd81-03-02 s1 t11 Don't Ease Me In.flac
     4:28.249     154511498 B   cxx   --   ---xx   flac  0.6800  gd81-03-02 s1 t12 Promised Land.flac
     0:44.880      25850924 B   cxx   --   ---xx   flac  0.6684  gd81-03-02 s2 t01 Crowd.flac
     7:40.440     265213484 B   cxx   --   ---xx   flac  0.6710  gd81-03-02 s2 t02 Ramble On Rose.flac
    12:33.960     434281004 B   cxx   --   ---xx   flac  0.6852  gd81-03-02 s2 t03 Playing In The Band.flac
     5:22.800     185932844 B   cxx   --   ---xx   flac  0.6577  gd81-03-02 s2 t04 China Doll.flac
     3:31.173     121635884 B   cxx   --   ---xx   flac  0.6730  gd81-03-02 s2 t05 Playing In The Band Jam.flac
    11:53.520     410987564 B   cxx   --   ---xx   flac  0.6683  gd81-03-02 s2 t06 Drums.flac
     8:08.320     281272364 B   cxx   --   ---xx   flac  0.6582  gd81-03-02 s2 t07 Space.flac
     2:47.853      96683564 B   cxx   --   ---xx   flac  0.6735  gd81-03-02 s2 t08 Playing In The Band Jam.flac
     2:22.760      82229804 B   cxx   --   ---xx   flac  0.6831  gd81-03-02 s2 t09 Playing In The Band.flac
     7:00.600     242265644 B   cxx   --   ---xx   flac  0.6691  gd81-03-02 s2 t10 The Wheel.flac
     3:54.813     135252524 B   cxx   --   ---xx   flac  0.6799  gd81-03-02 s2 t11 Around & Around.flac
     4:44.507     163875884 B   cxx   --   ---xx   flac  0.6895  gd81-03-02 s2 t12 Johnny B. Goode.flac
     5:34.866     192882866 B   cxx   --   ---xx   flac  0.6847  gd81-03-02 s2 t13 US Blues.flac
   146:02.048    5046940976 B                            0.6735  (25 files)

No errors occured.


Show Checksums
ffp
gd81-03-02 s1 t01 Crowd.flac:dba3cb4f3a51de743439fbca6584f303
gd81-03-02 s1 t02 Shakedown Street.flac:0a83c95cbde76d240a8b27fa49d10c65
gd81-03-02 s1 t03 New Minglewood Blues.flac:99a1f0ac16d9c7d98f4f75f742b08468
gd81-03-02 s1 t04 Dire Wolf.flac:ce65f5d4835dc8b1b7af60ec5159801f
gd81-03-02 s1 t05 Cassidy.flac:45e50c4170969c610656489cc825e846
gd81-03-02 s1 t06 Althea.flac:f7cd6941d069a5e7f4c784712b3fbe37
gd81-03-02 s1 t07 El Paso.flac:6ee18759fb7096d9d07173a9bdd51c2d
gd81-03-02 s1 t08 Jack-A-Roe.flac:17a7a7f68cda7586cfb09976ad693baf
gd81-03-02 s1 t09 Lazy Lightning.flac:a2e639be1c22ce03f883f7e4742f4489
gd81-03-02 s1 t10 Supplication.flac:c4a4e0dfb1c5412e773bcbc3c55a8d56
gd81-03-02 s1 t11 Don't Ease Me In.flac:43cd7f855e07d3c7ab0bd407e39a96f1
gd81-03-02 s1 t12 Promised Land.flac:b89486a22feb967cd5a4c1b36d6dfe34
gd81-03-02 s2 t01 Crowd.flac:4da39e8dc17b75c8901bd6abdf329486
gd81-03-02 s2 t02 Ramble On Rose.flac:e8974560121b4baad634f3b8a7b99b79
gd81-03-02 s2 t03 Playing In The Band.flac:47e0bdffc19a36830730d135db3dc9e9
gd81-03-02 s2 t04 China Doll.flac:c230db44ef67917881ec8b9c32a1d2ca
gd81-03-02 s2 t05 Playing In The Band Jam.flac:ee80cdb26fe4635fb53d0d6d4859823d
gd81-03-02 s2 t06 Drums.flac:b6d0544f7d1d9db2b6d42529eef8f193
gd81-03-02 s2 t07 Space.flac:e73e944e46b3b97074a924cdaefccef3
gd81-03-02 s2 t08 Playing In The Band Jam.flac:41820132ca1595804267aeeecc62580e
gd81-03-02 s2 t09 Playing In The Band.flac:eec01f769c8a34665abe7ccadd572241
gd81-03-02 s2 t10 The Wheel.flac:1afe2ac18c8230e91c71567624cfd898
gd81-03-02 s2 t11 Around & Around.flac:dc978f5f02ef107d96d4daa8a1f880e0
gd81-03-02 s2 t12 Johnny B. Goode.flac:b66b043f9b6e5ebabe86b3a14fe7bbec
gd81-03-02 s2 t13 US Blues.flac:085429668ddcaed9df8686dcd6a7a320
flac-md5
05b4fc7080584f47fb17a59ea08ab841 *gd81-03-02 s1 t01 Crowd.flac
c8384dcf7444d774fa5d87034dfcc55d *gd81-03-02 s1 t02 Shakedown Street.flac
933ad2285673246035e59818a471b760 *gd81-03-02 s1 t03 New Minglewood Blues.flac
93128aab632eb507363e1323866e24d2 *gd81-03-02 s1 t04 Dire Wolf.flac
63eb0a04cd32bd934764e4ba466b03da *gd81-03-02 s1 t05 Cassidy.flac
aea5488d3bd7c87fd7cf3cac2991fda8 *gd81-03-02 s1 t06 Althea.flac
ae6e00ffdab8745d8c3066d5b82e9732 *gd81-03-02 s1 t07 El Paso.flac
3810e57df57d4b8560ac72d4596186cc *gd81-03-02 s1 t08 Jack-A-Roe.flac
faddebd0ccf952c13cbd5a7bb94a2f96 *gd81-03-02 s1 t09 Lazy Lightning.flac
d9c023de1eceafc9d9b4bb398725729e *gd81-03-02 s1 t10 Supplication.flac
a1eeb0743f3f8449c9f99e25dc0d080e *gd81-03-02 s1 t11 Don't Ease Me In.flac
770dce5eef9e85e157c051226e9db680 *gd81-03-02 s1 t12 Promised Land.flac
b21b9b4d45d0b9ca6efd3140425b2340 *gd81-03-02 s2 t01 Crowd.flac
5f06632bdbf19734532e7dd231326b25 *gd81-03-02 s2 t02 Ramble On Rose.flac
8338bdce5407d45fcc382c7fac8de443 *gd81-03-02 s2 t03 Playing In The Band.flac
0cfa93328f0876abe8d5cde562a34128 *gd81-03-02 s2 t04 China Doll.flac
88041360178aa701a3ebb1436b258bc9 *gd81-03-02 s2 t05 Playing In The Band Jam.flac
c2c23fd8fa3f0b657babc44ed4497c69 *gd81-03-02 s2 t06 Drums.flac
750b931a04a94df754de006b120e4bd2 *gd81-03-02 s2 t07 Space.flac
c16dc2aa8e4bb76b7d6ca6453d912486 *gd81-03-02 s2 t08 Playing In The Band Jam.flac
11e43de9cca72b3bca231ff542e5ad71 *gd81-03-02 s2 t09 Playing In The Band.flac
b2b3e89f584ebc190826cf244bedc7b5 *gd81-03-02 s2 t10 The Wheel.flac
e0b46106a0ca1dccfcd4bf19a7a8eeaf *gd81-03-02 s2 t11 Around & Around.flac
76a01b6ca10761374a5a6632023f52fc *gd81-03-02 s2 t12 Johnny B. Goode.flac
5901c008b8f3386b01719083e3ae11ab *gd81-03-02 s2 t13 US Blues.flac

Comments
Add Comment
Other Sources (comments)
Recording by Bob Wagner:... (0) flac16; Recording by... (0) flac16; Recording by... (1) flac24; Recording by... (1) flac16; Recording... (0) flac24/96; Recording... (1) flac16; Recording... (0) flac16; Source Info:... (0)
Date User Comment