Browse Collections Artists Sources   Search Dates

Add Show    List Management    Help


Grateful Dead 03/03/81
Cleveland Music Hall, Cleveland, OH
Comments Add Comment    Source Collectors    Add to Collection    Add to Want List    History
Source # 139735 Other Sources
Entered by Matt Vernon
Checksums ffp , flac-md5
Disc Counts 0 / 0
Media Size
Date Circulated
Date Added
11/07/2017
11/07/2017
Source Summary flac16; Source Info: Frank Streeter's Master FOB Audience Cassette; Beyer M88 > Sony TC-D5M (Maxell MX90); Transfer Info: Cassette Master (Nakamichi CR-7A) > Tascam DA-3000 (DSF 1-bit/5.8 MHz)> KORG AudioGate 4 > Adobe Audition 3.0> TLH flac2496; Transfer by Charlie Miller; Mastered by Scott Clugston 
  Archive
Source Information - Download Text | Download Zip
Grateful Dead
Cleveland Music Hall
Cleveland, OH
Tuesday March 3, 1981

This is a 16/44 fileset. 24 bit to 16 bit via dBpoweramp

Source Info:
Frank Streeter's Master FOB Audience Cassette; Beyer M88 > Sony TC-D5M (Maxell MX90)

Transfer Info:
Cassette Master (Nakamichi CR-7A) > Tascam DA-3000 (DSF 1-bit/5.8 MHz)> KORG AudioGate 4 > Adobe Audition 3.0> TLH flac2496

Transfer by Charlie Miller
Mastered by Scott Clugston
11/7/17

Notes:
- Thanks to Frank Streeter for the source cassettes
- Thanks to Charlie Miller for the transfer
- Thanks to the folks responsible for shnid18579 and shnid83828 nak700 sources which were both used to supply different patches, mostly in between song tunings and transitions. There's a patch from the last beat of Bird Song thru the 1st 0:06 of "Looks Like Rain". There are still a few seconds of noodling missing from the "Looks Like Rain" intro. There's a 0:24 patch from the "I Know You Rider" outro thru the beginning of "Samson & Delilah"
- Between song transitions smoothed
- I could not assemble a complete "Drums", tape flip smoothed and is virtually transparent
- Nice Jam out of He's Gone into Drums
- No Space to speak of, Bobby noodles right into Lost Sailor

Set One:
s1 t01. Crowd/tuning
s1 t02. Feel Like A Stranger
s1 t03. Peggy O
s1 t04. Me & My Uncle ->
s1 t05. Big River
s1 t06. Bird Song
s1 t07. Looks Like Rain
s1 t08. Big Railraod Blues
s1 t09. Little Red Rooster ->
s1 t10. Deal

Set Two:
s2 t01. China Cat Sunflower ->
s2 t02. I Know You Rider ->
s2 t03. Samson & Delilah
s2 t04. He's Gone -> Jam ->
s2 t05. Drums ->
s2 t06. Lost Sailor ->
s2 t07. Saint Of Circumstance ->
s2 t08. Black Peter ->
s2 t09. Good Lovin'
Encore
s2 t10. Casey Jones


   length     expanded size    cdr  WAVE problems  fmt   ratio  filename
    1:45.72       18691388 B   ---   --   ---xx   flac  0.5299  gd81-03-03 s1 t01 Crowd.flac
    8:34.33       90747260 B   ---   --   ---xx   flac  0.5814  gd81-03-03 s1 t02 Feel Like A Stranger.flac
    8:22.33       88630460 B   ---   --   ---xx   flac  0.5655  gd81-03-03 s1 t03 Peggy O.flac
    3:00.12       31780268 B   ---   --   ---xx   flac  0.5858  gd81-03-03 s1 t04 Me & My Uncle.flac
    5:25.72       57499388 B   ---   --   ---xx   flac  0.6013  gd81-03-03 s1 t05 Big River.flac
   11:07.29      117727052 B   ---   --   ---xx   flac  0.5783  gd81-03-03 s1 t06 Bird Song.flac
    7:39.72       81136988 B   ---   --   ---xx   flac  0.5784  gd81-03-03 s1 t07 Looks Like Rain.flac
    4:33.22       48208988 B   ---   --   ---xx   flac  0.6156  gd81-03-03 s1 t08 Big Railroad Blues.flac
    9:37.05      101794604 B   ---   --   ---xx   flac  0.5936  gd81-03-03 s1 t09 Little Red Rooster.flac
    7:04.73       74965340 B   ---   --   ---xx   flac  0.6065  gd81-03-03 s1 t10 Deal.flac
   11:02.18      116819180 B   ---   --   ---xx   flac  0.6052  gd81-03-03 s2 t01 China Cat Sunflower.flac
    5:44.26       60742796 B   ---   --   ---xx   flac  0.6252  gd81-03-03 s2 t02 I Know You Rider.flac
    7:54.19       83658332 B   ---   --   ---xx   flac  0.6177  gd81-03-03 s2 t03 Samson & Delilah.flac
   16:04.23      170103740 B   ---   --   ---xx   flac  0.5820  gd81-03-03 s2 t04 He's Gone.flac
   10:21.35      109626764 B   ---   --   ---xx   flac  0.5503  gd81-03-03 s2 t05 Drums.flac
    6:54.61       73173116 B   ---   --   ---xx   flac  0.5723  gd81-03-03 s2 t06 Lost Sailor.flac
    6:53.38       72942620 B   ---   --   ---xx   flac  0.6242  gd81-03-03 s2 t07 Saint Of Circumstance.flac
   10:06.23      106952540 B   ---   --   ---xx   flac  0.5789  gd81-03-03 s2 t08 Black Peter.flac
    8:25.46       89190236 B   ---   --   ---xx   flac  0.6251  gd81-03-03 s2 t09 Good Lovin'.flac
    5:13.48       55326140 B   ---   --   ---xx   flac  0.6128  gd81-03-03 s2 t10 Casey Jones.flac
  155:52.10     1649717200 B                            0.5911  (20 files)

Show Checksums
ffp
gd81-03-03 s1 t01 Crowd.flac:537c5895d6b8601b21be5a53aa82caa0
gd81-03-03 s1 t02 Feel Like A Stranger.flac:464bb7c16f8e68c5823ae9fc5a59a1d9
gd81-03-03 s1 t03 Peggy O.flac:1dcfb9aed24b6f4f2c331e8d72a08b33
gd81-03-03 s1 t04 Me & My Uncle.flac:f2ade199db67abcf6a502cad7371aada
gd81-03-03 s1 t05 Big River.flac:bf65d9fe9bebc59701b7ad085467b7f1
gd81-03-03 s1 t06 Bird Song.flac:87e048736ea39eb04973612fea6a5fe6
gd81-03-03 s1 t07 Looks Like Rain.flac:c384202defb175722024657c408e4560
gd81-03-03 s1 t08 Big Railroad Blues.flac:383829a5d92369b7065fd6e84e4e60ef
gd81-03-03 s1 t09 Little Red Rooster.flac:4af9fe4dca43d01c85ac7080d758ce0a
gd81-03-03 s1 t10 Deal.flac:c7882296a79069b2be53b61e902b4ef3
gd81-03-03 s2 t01 China Cat Sunflower.flac:53da6aeddb3264e0d0584f50559496b3
gd81-03-03 s2 t02 I Know You Rider.flac:3ec88e10cff4b92c8c4d2c2be384dd09
gd81-03-03 s2 t03 Samson & Delilah.flac:9d800e5f2db92e2a9d0e35efa58ca749
gd81-03-03 s2 t04 He's Gone.flac:5daef5d9395d832a5395eefbf3768198
gd81-03-03 s2 t05 Drums.flac:3995fcf5c473358552f6c0554ac492db
gd81-03-03 s2 t06 Lost Sailor.flac:f11531d28b55f8b6f0d0a365b428df98
gd81-03-03 s2 t07 Saint Of Circumstance.flac:56ca094f9c5eba5ed0df92ee20e8d322
gd81-03-03 s2 t08 Black Peter.flac:0c84cb451ef42b90241340dd027af568
gd81-03-03 s2 t09 Good Lovin'.flac:d1d7030e1d58cd1a10dbb26e90794b18
gd81-03-03 s2 t10 Casey Jones.flac:59dc8a2312077288fc34e0e62cdb8585
flac-md5
419f9a80dbb03048c4b300ba5b42a174 *gd81-03-03 s1 t01 Crowd.flac
0599b6f8a06ad83919846d189b47bd2a *gd81-03-03 s1 t02 Feel Like A Stranger.flac
a87336806e7a7863582234e09c955a6c *gd81-03-03 s1 t03 Peggy O.flac
4b90f2bcb10f5b5960d2c8ae9af5ea24 *gd81-03-03 s1 t04 Me & My Uncle.flac
8a10518164344a61d949d982db0672c8 *gd81-03-03 s1 t05 Big River.flac
fb09fe5173967ef3540101ba42619881 *gd81-03-03 s1 t06 Bird Song.flac
4cb839e77cb28081922f0f1eb0fa33b3 *gd81-03-03 s1 t07 Looks Like Rain.flac
0e4af46649bc5a1521dc4e4ec244211e *gd81-03-03 s1 t08 Big Railroad Blues.flac
fca077b2b2a5728cc3eca47b938c7813 *gd81-03-03 s1 t09 Little Red Rooster.flac
0553b08a1e060f2a782bae7beb59e84f *gd81-03-03 s1 t10 Deal.flac
80e34631f350d4779a5dab712b8ffd89 *gd81-03-03 s2 t01 China Cat Sunflower.flac
538eb41a402f8bd0e937aad83bb564a0 *gd81-03-03 s2 t02 I Know You Rider.flac
b8d35edb11404a750f7e864a070d69cb *gd81-03-03 s2 t03 Samson & Delilah.flac
195fc31394b50162108eb8c2f91b8922 *gd81-03-03 s2 t04 He's Gone.flac
b251865c66f28cc8285c56e5dd3332f1 *gd81-03-03 s2 t05 Drums.flac
ce25056a4477f067bd2e783631447cae *gd81-03-03 s2 t06 Lost Sailor.flac
7ef6906c3271d8ade18b035156a13c75 *gd81-03-03 s2 t07 Saint Of Circumstance.flac
76bdb1b9cdcfe0fca1433deae754457c *gd81-03-03 s2 t08 Black Peter.flac
b8360a473c5e5ad10e486727584cb183 *gd81-03-03 s2 t09 Good Lovin'.flac
f0b25f4c9a84562f62d1afa86bf02ad5 *gd81-03-03 s2 t10 Casey Jones.flac

Comments
Add Comment
Other Sources (comments)
aud> mics?> cassette... (0) Recording by Mark Horvath:... (1) Recording by Bob Wagner;... (2) flac16; Recording by... (0) flac16; Recording... (0) flac16; Recording... (2) flac16; Recording... (0) flac24; Source Info:... (1)
Date User Comment
11/07/2017 Wharfrat73 Updated info file.