Browse Collections Artists Sources   Search Dates

Add Show    List Management    Help


Grateful Dead 03/03/81
Cleveland Music Hall, Cleveland, OH
Comments Add Comment    Source Collectors    Add to Collection    Add to Want List    History
Source # 139736 Other Sources
Entered by Matt Vernon
Checksums ffp , flac-md5
Disc Counts 0 / 0
Media Size
Date Circulated
Date Added
11/07/2017
11/07/2017
Source Summary flac24; Source Info: Frank Streeter's Master FOB Audience Cassette; Beyer M88 > Sony TC-D5M (Maxell MX90); Transfer Info: Cassette Master (Nakamichi CR-7A) > Tascam DA-3000 (DSF 1-bit/5.8 MHz)> KORG AudioGate 4 > Adobe Audition 3.0> TLH flac2496; Transfer by Charlie Miller; Mastered by Scott Clugston 
  Archive
Source Information - Download Text | Download Zip
Grateful Dead
Cleveland Music Hall
Cleveland, OH
Tuesday March 3, 1981

Source Info:
Frank Streeter's Master FOB Audience Cassette; Beyer M88 > Sony TC-D5M (Maxell MX90)

Transfer Info:
Cassette Master (Nakamichi CR-7A) > Tascam DA-3000 (DSF 1-bit/5.8 MHz)> KORG AudioGate 4 > Adobe Audition 3.0> TLH flac2496

Transfer by Charlie Miller
Mastered by Scott Clugston
11/7/17

Notes:
- Thanks to Frank Streeter for the source cassettes
- Thanks to Charlie Miller for the transfer
- Thanks to the folks responsible for shnid18579 and shnid83828 nak700 sources which were both used to supply different patches, mostly in between song tunings and transitions. There's a patch from the last beat of Bird Song thru the 1st 0:06 of "Looks Like Rain". There are still a few seconds of noodling missing from the "Looks Like Rain" intro. There's a 0:24 patch from the "I Know You Rider" outro thru the beginning of "Samson & Delilah"
- Between song transitions smoothed
- I could not assemble a complete "Drums", tape flip smoothed and is virtually transparent
- Nice Jam out of He's Gone into Drums
- No Space to speak of, Bobby noodles right into Lost Sailor

Set One:
s1 t01. Crowd/tuning
s1 t02. Feel Like A Stranger
s1 t03. Peggy O
s1 t04. Me & My Uncle ->
s1 t05. Big River
s1 t06. Bird Song
s1 t07. Looks Like Rain
s1 t08. Big Railraod Blues
s1 t09. Little Red Rooster ->
s1 t10. Deal

Set Two:
s2 t01. China Cat Sunflower ->
s2 t02. I Know You Rider ->
s2 t03. Samson & Delilah
s2 t04. He's Gone -> Jam ->
s2 t05. Drums ->
s2 t06. Lost Sailor ->
s2 t07. Saint Of Circumstance ->
s2 t08. Black Peter ->
s2 t09. Good Lovin'
Encore
s2 t10. Casey Jones


    length     expanded size    cdr  WAVE problems  fmt   ratio  filename
    1:45.960      61033004 B   cxx   --   ---xx   flac  0.6466  gd81-03-03 s1 t01 Crowd.flac
    8:34.440     296317484 B   cxx   --   ---xx   flac  0.6714  gd81-03-03 s1 t02 Feel Like A Stranger.flac
    8:22.440     289405484 B   cxx   --   ---xx   flac  0.6666  gd81-03-03 s1 t03 Peggy O.flac
    3:00.160     103772204 B   cxx   --   ---xx   flac  0.6732  gd81-03-03 s1 t04 Me & My Uncle.flac
    5:25.960     187753004 B   cxx   --   ---xx   flac  0.6785  gd81-03-03 s1 t05 Big River.flac
   11:07.387     384414764 B   cxx   --   ---xx   flac  0.6696  gd81-03-03 s1 t06 Bird Song.flac
    7:39.960     264937004 B   cxx   --   ---xx   flac  0.6686  gd81-03-03 s1 t07 Looks Like Rain.flac
    4:33.293     157417004 B   cxx   --   ---xx   flac  0.6846  gd81-03-03 s1 t08 Big Railroad Blues.flac
    9:37.067     332390444 B   cxx   --   ---xx   flac  0.6769  gd81-03-03 s1 t09 Little Red Rooster.flac
    7:04.974     244785344 B   cxx   --   ---xx   flac  0.6811  gd81-03-03 s1 t10 Deal.flac
   11:02.240     381450284 B   cxx   --   ---xx   flac  0.6753  gd81-03-03 s2 t01 China Cat Sunflower.flac
    5:44.347     198343724 B   cxx   --   ---xx   flac  0.6807  gd81-03-03 s2 t02 I Know You Rider.flac
    7:54.253     273169964 B   cxx   --   ---xx   flac  0.6762  gd81-03-03 s2 t03 Samson & Delilah.flac
   16:04.307     555440684 B   cxx   --   ---xx   flac  0.6676  gd81-03-03 s2 t04 He's Gone.flac
   10:21.467     357964844 B   cxx   --   ---xx   flac  0.6495  gd81-03-03 s2 t05 Drums.flac
    6:54.813     238932524 B   cxx   --   ---xx   flac  0.6489  gd81-03-03 s2 t06 Lost Sailor.flac
    6:53.507     238179884 B   cxx   --   ---xx   flac  0.6819  gd81-03-03 s2 t07 Saint Of Circumstance.flac
   10:06.307     349232684 B   cxx   --   ---xx   flac  0.6672  gd81-03-03 s2 t08 Black Peter.flac
    8:25.613     291233324 B   cxx   --   ---xx   flac  0.6820  gd81-03-03 s2 t09 Good Lovin'.flac
    5:13.629     180650528 B   cxx   --   ---xx   flac  0.6758  gd81-03-03 s2 t10 Casey Jones.flac
  155:52.124    5386824184 B                            0.6710  (20 files)

Show Checksums
ffp
gd81-03-03 s1 t01 Crowd.flac:c171055d2533d65b7e09bf8ac9fe29b9
gd81-03-03 s1 t02 Feel Like A Stranger.flac:abfc0523b0a1b38a3ffe5375387ec8ae
gd81-03-03 s1 t03 Peggy O.flac:6778cf6bc48d0cf3663c561ffd247919
gd81-03-03 s1 t04 Me & My Uncle.flac:cd53c1c76cd09eeae811fdbb22bbe4c2
gd81-03-03 s1 t05 Big River.flac:4f702302dc75ed8590d73b4335bbfa78
gd81-03-03 s1 t06 Bird Song.flac:893673ec12e7201a7a748e9c9785fc15
gd81-03-03 s1 t07 Looks Like Rain.flac:be4adfced21d1cf8e0cc3de60b868812
gd81-03-03 s1 t08 Big Railroad Blues.flac:b2e5d4157735dc2482cb7c117ef53d46
gd81-03-03 s1 t09 Little Red Rooster.flac:80ef97129fe64053ecad6f1d1288995a
gd81-03-03 s1 t10 Deal.flac:ec1f0ff3ca41d92d223c28c2eca97519
gd81-03-03 s2 t01 China Cat Sunflower.flac:fbf594cb0827b2796e99883bafd85b70
gd81-03-03 s2 t02 I Know You Rider.flac:6bd57b16485a069c93d71a1800c76359
gd81-03-03 s2 t03 Samson & Delilah.flac:fdf420376745ff95f8dab94cc801ed87
gd81-03-03 s2 t04 He's Gone.flac:594f785e1c64cf666f0ad078a16e3feb
gd81-03-03 s2 t05 Drums.flac:04642393e53f43915b62c2fcd364f1a0
gd81-03-03 s2 t06 Lost Sailor.flac:fc00df98584bc7b49452a1a00b7755d3
gd81-03-03 s2 t07 Saint Of Circumstance.flac:b84c6f5ff770fb10244fc7316fb9214f
gd81-03-03 s2 t08 Black Peter.flac:19ae769b1adca29ef0e5f43c6ba10f32
gd81-03-03 s2 t09 Good Lovin'.flac:6c427deb9417983d652f21764212842b
gd81-03-03 s2 t10 Casey Jones.flac:7b96e202f1f9d83547237212c04ae9af
flac-md5
0eaf30815a27d21461859bcad088868d *gd81-03-03 s1 t01 Crowd.flac
8a4cc53ca96907e2b96f555a01250a9f *gd81-03-03 s1 t02 Feel Like A Stranger.flac
2a159e2bcb54792b86f028bde9a39220 *gd81-03-03 s1 t03 Peggy O.flac
c6bd8686476fdc7a84f28e2b2f9e335c *gd81-03-03 s1 t04 Me & My Uncle.flac
a62fdcb98674b6685550bc06fa50235c *gd81-03-03 s1 t05 Big River.flac
a666530bfb693ba107a3e8b84a0d3f6c *gd81-03-03 s1 t06 Bird Song.flac
92ccb2b8d10630251c510aa5997bd830 *gd81-03-03 s1 t07 Looks Like Rain.flac
7582f770c21f01d3ac88bf1a3dbd4fa8 *gd81-03-03 s1 t08 Big Railroad Blues.flac
58411bb9a99dabd3dc6dcd439252b31b *gd81-03-03 s1 t09 Little Red Rooster.flac
b14be2634ea5e8fd06555bbe0acdad43 *gd81-03-03 s1 t10 Deal.flac
85d032d524db9e8b18e4e97fcda4b5cf *gd81-03-03 s2 t01 China Cat Sunflower.flac
85a6c2ea9ddf23ee818a8b26c5f8a195 *gd81-03-03 s2 t02 I Know You Rider.flac
2bbc6d9ca461545d5edb9c86c7e04a05 *gd81-03-03 s2 t03 Samson & Delilah.flac
3d09cd1e0e0b6d4985bc860274db5fe8 *gd81-03-03 s2 t04 He's Gone.flac
4ff421fe17a52ffac9c7eaa558031dad *gd81-03-03 s2 t05 Drums.flac
27d33f9ea48d7a35fad3ed1da981c0d5 *gd81-03-03 s2 t06 Lost Sailor.flac
9629d3543a4a25021d4b7ed058cc1ca8 *gd81-03-03 s2 t07 Saint Of Circumstance.flac
fe4f4a5364a12e240968f68fc4a8e407 *gd81-03-03 s2 t08 Black Peter.flac
37b524a10d72b1c3359e420b9f763cbc *gd81-03-03 s2 t09 Good Lovin'.flac
698a56ab49f08d2c3b47f28b4c32a9f9 *gd81-03-03 s2 t10 Casey Jones.flac

Comments
Add Comment
Other Sources (comments)
aud> mics?> cassette... (0) Recording by Mark Horvath:... (1) Recording by Bob Wagner;... (2) flac16; Recording by... (0) flac16; Recording... (0) flac16; Recording... (2) flac16; Recording... (0) flac16; Source Info:... (1)
Date User Comment
11/07/2017 Wharfrat73 Updated info file.