Browse Collections Artists Sources   Search Dates

Add Show    List Management    Help


Grateful Dead 03/05/81
Stanley Theater, Pittsburgh, PA
Comments Add Comment    Source Collectors    Add to Collection    Add to Want List    History
Source # 139739 Other Sources
Entered by Matt Vernon
Checksums ffp , flac-md5
Disc Counts 0 / 0
Media Size
Date Circulated
Date Added
11/09/2017
11/09/2017
Source Summary flac16; Source Info: Frank Streeter's Master FOB Audience Cassette; Beyer M160 > Sony TC-D5M (Maxell MX90); Transfer Info: Cassette Master (Nakamichi CR-7A) > Tascam DA-3000 (DSF 1-bit/5.8 MHz)> KORG AudioGate 4 > Adobe Audition 3.0> TLH flac2496; Transfer by Charlie Miller; Mastered by Scott Clugston 
  Archive
Source Information - Download Text | Download Zip
Grateful Dead
Stanley Theatre
Pittssburgh, PA
Thursday March 5, 1981

This is a 16/44 fileset. 24 bit to 16 bit via dBpoweramp

Source Info:
Frank Streeter's Master FOB Audience Cassette; Beyer M160 > Sony TC-D5M (Maxell MX90)

Transfer Info:
Cassette Master (Nakamichi CR-7A) > Tascam DA-3000 (DSF 1-bit/5.8 MHz)> KORG AudioGate 4 > Adobe Audition 3.0> TLH flac2496

Transfer by Charlie Miller
Mastered by Scott Clugston
11/8/17

Notes:
- Thanks to Frank Streeter for the source cassettes
- Thanks to Charlie Miller for the transfer
- Thanks to the folks responsible for the shnid83494 nak700 source which provides the last beat of "Mexicali Blues" and the majority of the tuning before "To Lay Me Down", approximately 0:45, as well as the crowd after "Fire On The Mountain", approximately 0:10
- Between song transitions smoothed
- Tape flip in "Drums" has been smoothed and is virtually transparent

Set One:
s1 t01. Crowd/tuning
s1 t02. Alabama Getaway ->
s1 t03. Greatest Story Ever Told
s1 t04. Friend Of The Devil
s1 t05. CC Rider
s1 t06. Althea
s1 t07. Mama Tried ->
s1 t08. Mexicali Blues
s1 t09. To Lay Me Down
s1 t10. Minglewood Blues
s1 t11. Tennessee Jed ->
s1 t12. The Music Never Stopped

Set Two:
s2 t01. Crowd/tuning
s2 t02. Jam (w/o Jerry)->
s2 t03. Passenger
s2 t04. Scarlet Begonias ->
s2 t05. Fire On The Mountain
s2 t06. Playing In The Band ->
s2 t07. Drums ->
s2 t08. Space ->
s2 t09. Not Fade Away ->
s2 t10. Wharf Rat ->
s2 t11. Around & Around
Encore
s2 t12. US Blues


      length     expanded size    cdr  WAVE problems  fmt   ratio  filename
     1:08.65       12148124 B   ---   --   ---xx   flac  0.5563  gd81-03-05 s1 t01 Crowd.flac
     5:19.62       56417468 B   ---   --   ---xx   flac  0.6382  gd81-03-05 s1 t02 Alabama Getaway.flac
     4:06.45       43500284 B   ---   --   ---xx   flac  0.6302  gd81-03-05 s1 t03 Greatest Story Ever Told.flac
     9:28.26      100256396 B   ---   --   ---xx   flac  0.6030  gd81-03-05 s1 t04 Friend Of The Devil.flac
     7:46.61       82345916 B   ---   --   ---xx   flac  0.6144  gd81-03-05 s1 t05 CC Rider.flac
     8:08.06       86097356 B   ---   --   ---xx   flac  0.6036  gd81-03-05 s1 t06 Althea.flac
     2:32.45       26918684 B   ---   --   ---xx   flac  0.6304  gd81-03-05 s1 t07 Mama Tried.flac
     5:22.29       56869052 B   ---   --   ---xx   flac  0.6140  gd81-03-05 s1 t08 Mexicali Blues.flac
     9:50.18      104118380 B   ---   --   ---xx   flac  0.5729  gd81-03-05 s1 t09 To Lay Me Down.flac
     7:17.45       77192684 B   ---   --   ---xx   flac  0.6288  gd81-03-05 s1 t10 New Minglewood Blues.flac
     8:51.29       93736652 B   ---   --   ---xx   flac  0.6146  gd81-03-05 s1 t11 Tennessee Jed.flac
     7:59.33       84573260 B   ---   --   ---xx   flac  0.6377  gd81-03-05 s1 t12 The Music Never Stopped.flac
     3:01.72       32097788 B   ---   --   ---xx   flac  0.5992  gd81-03-05 s2 t01 Crowd.flac
     7:24.56       78453356 B   ---   --   ---xx   flac  0.6514  gd81-03-05 s2 t02 Jam.flac
     5:18.27       56158748 B   ---   --   ---xx   flac  0.6539  gd81-03-05 s2 t03 Passenger.flac
    11:30.50      121833644 B   ---   --   ---xx   flac  0.6235  gd81-03-05 s2 t04 Scarlet Begonias.flac
    12:02.47      127471388 B   ---   --   ---xx   flac  0.6234  gd81-03-05 s2 t05 Fire On The Mountain.flac
    14:13.66      150624476 B   ---   --   ---xx   flac  0.6310  gd81-03-05 s2 t06 Playing In The Band.flac
    11:48.07      124907708 B   ---   --   ---xx   flac  0.5767  gd81-03-05 s2 t07 Drums.flac
     4:13.38       44718620 B   ---   --   ---xx   flac  0.5600  gd81-03-05 s2 t08 Space.flac
     9:29.40      100465724 B   ---   --   ---xx   flac  0.6403  gd81-03-05 s2 t09 Not Fade Away.flac
    11:29.09      121560812 B   ---   --   ---xx   flac  0.6206  gd81-03-05 s2 t10 Wharf Rat.flac
     8:44.65       92586524 B   ---   --   ---xx   flac  0.6557  gd81-03-05 s2 t11 Around & Around.flac
     5:16.36       55827116 B   ---   --   ---xx   flac  0.6538  gd81-03-05 s2 t12 US Blues.flac
   182:26.02     1930880160 B                            0.6196  (24 files)

No errors occured.


Show Checksums
ffp
gd81-03-05 s1 t01 Crowd.flac:d7750f600c6da1d86ae814713bbe1f9e
gd81-03-05 s1 t02 Alabama Getaway.flac:0c9aa6123296a8febd5e723d219f2bc7
gd81-03-05 s1 t03 Greatest Story Ever Told.flac:7b49e5a6552357caa031b22684d90562
gd81-03-05 s1 t04 Friend Of The Devil.flac:0f406ea21289bdddf0b63e33c946c05f
gd81-03-05 s1 t05 CC Rider.flac:05d7ba72498ae2d596e57990a0bd22c1
gd81-03-05 s1 t06 Althea.flac:b0fd18dfeb1201d4d945bde593819a50
gd81-03-05 s1 t07 Mama Tried.flac:ddc1d18e49abbf34eb4f7c4869cd48bc
gd81-03-05 s1 t08 Mexicali Blues.flac:07901e5f9d42afaccd40180ab3312c41
gd81-03-05 s1 t09 To Lay Me Down.flac:8764fd4eb2e7e72d211d017e1628b317
gd81-03-05 s1 t10 New Minglewood Blues.flac:80b3004b688dc1ec191726d463ee11b0
gd81-03-05 s1 t11 Tennessee Jed.flac:d73d331978ee7e9c930a85029131b47f
gd81-03-05 s1 t12 The Music Never Stopped.flac:d625eb7972afe2fcd5ac04021d059285
gd81-03-05 s2 t01 Crowd.flac:21324ecccb9aae7811a86970d975b850
gd81-03-05 s2 t02 Jam.flac:a84f8b999bf07df59c68dcbd54949522
gd81-03-05 s2 t03 Passenger.flac:51bd8a06c4a644ec0502acd6d95ed55f
gd81-03-05 s2 t04 Scarlet Begonias.flac:bf08f701ba630449068be42d16e303a5
gd81-03-05 s2 t05 Fire On The Mountain.flac:b17c3470066c844c0103a57ffe17effc
gd81-03-05 s2 t06 Playing In The Band.flac:c39d7a9bb80f3cf969cf2f891359bebb
gd81-03-05 s2 t07 Drums.flac:b860371d613ef1738b0c80c55a241a23
gd81-03-05 s2 t08 Space.flac:94e1b8871a21310907c10d121e7a3a39
gd81-03-05 s2 t09 Not Fade Away.flac:d5b66395586c18e7338779061f9c2c06
gd81-03-05 s2 t10 Wharf Rat.flac:14554fc1fa8bc69cb43d83dd0ffb1388
gd81-03-05 s2 t11 Around & Around.flac:66f0b9d4966c101832b960f5ed685c90
gd81-03-05 s2 t12 US Blues.flac:ffac8f88da1f986cb9dedc47d7c85e55
flac-md5
2be51171047c6cfc7e5bdba84150a015 *gd81-03-05 s1 t01 Crowd.flac
b27f107dc6f07b2271fba9d4f757d431 *gd81-03-05 s1 t02 Alabama Getaway.flac
a1b3e874f09f1c92a15d3c82cadb8749 *gd81-03-05 s1 t03 Greatest Story Ever Told.flac
bee901a70302ce6367e9377bd36c125a *gd81-03-05 s1 t04 Friend Of The Devil.flac
95b7f147fcc3a6f4be4bbea206a09af5 *gd81-03-05 s1 t05 CC Rider.flac
d7730072c7845b1806eafd3ff30ea6c4 *gd81-03-05 s1 t06 Althea.flac
b36d89b7aaadcc798ebe145ca5a8b257 *gd81-03-05 s1 t07 Mama Tried.flac
31200dbbf13e9900af13136944002e36 *gd81-03-05 s1 t08 Mexicali Blues.flac
09379d3f63b18535abfa7b13decbf45b *gd81-03-05 s1 t09 To Lay Me Down.flac
a4fedeb9d7e655c401e14454e190908e *gd81-03-05 s1 t10 New Minglewood Blues.flac
63098337645fa73f91512d9ff59a4e22 *gd81-03-05 s1 t11 Tennessee Jed.flac
c170f24f76e6fe7eafd34f8fab7ee658 *gd81-03-05 s1 t12 The Music Never Stopped.flac
37859b0523f54dea3335ed88ec4a637e *gd81-03-05 s2 t01 Crowd.flac
dea6dc44389668f21c2b5e948ff268a8 *gd81-03-05 s2 t02 Jam.flac
0a99b46be72e2af802ac49bc4c7d9f6f *gd81-03-05 s2 t03 Passenger.flac
044ae724e293fc70f0069a610a5a7708 *gd81-03-05 s2 t04 Scarlet Begonias.flac
0dfa2c0afcea9a3a1b77b692a01a6ec2 *gd81-03-05 s2 t05 Fire On The Mountain.flac
1d24ac9c9827d368f5c925d3bef9a8e1 *gd81-03-05 s2 t06 Playing In The Band.flac
df1d081b6932e08afe4538bd92f6cdb9 *gd81-03-05 s2 t07 Drums.flac
ac087b330a6acc310390fc10d5656f5d *gd81-03-05 s2 t08 Space.flac
a96d4082bd770223693ebbfe56c19eb7 *gd81-03-05 s2 t09 Not Fade Away.flac
a8d6e9b11d03a421fa89f4153cd214b6 *gd81-03-05 s2 t10 Wharf Rat.flac
fb5150069c5baf2f41ab57689f47569e *gd81-03-05 s2 t11 Around & Around.flac
04167a07e4cff8b7d3532c4d1923f4c5 *gd81-03-05 s2 t12 US Blues.flac

Comments
Add Comment
Other Sources (comments)
Audience recording by Jim... (0) Set 2 soundboard, minus... (1) flac16; Recording by... (1) flac24; Recording by... (0) flac16; Recording by... (0) flac16; Recorded By... (0) flac16; AUD: Unknown... (0) flac24; Source Info:... (0)
Date User Comment