Browse Collections Artists Sources   Search Dates

Add Show    List Management    Help


Grateful Dead 03/05/81
Stanley Theater, Pittsburgh, PA
Comments Add Comment    Source Collectors    Add to Collection    Add to Want List    History
Source # 139740 Other Sources
Entered by Matt Vernon
Checksums ffp , flac-md5
Disc Counts 0 / 0
Media Size
Date Circulated
Date Added
11/08/2017
11/09/2017
Source Summary flac24; Source Info: Frank Streeter's Master FOB Audience Cassette; Beyer M160 > Sony TC-D5M (Maxell MX90); Transfer Info: Cassette Master (Nakamichi CR-7A) > Tascam DA-3000 (DSF 1-bit/5.8 MHz)> KORG AudioGate 4 > Adobe Audition 3.0> TLH flac2496; Transfer by Charlie Miller; Mastered by Scott Clugston 
  Archive
Source Information - Download Text | Download Zip
Grateful Dead
Stanley Theatre
Pittssburgh, PA
Thursday March 5, 1981

Source Info:
Frank Streeter's Master FOB Audience Cassette; Beyer M160 > Sony TC-D5M (Maxell MX90)

Transfer Info:
Cassette Master (Nakamichi CR-7A) > Tascam DA-3000 (DSF 1-bit/5.8 MHz)> KORG AudioGate 4 > Adobe Audition 3.0> TLH flac2496

Transfer by Charlie Miller
Mastered by Scott Clugston
11/8/17

Notes:
- Thanks to Frank Streeter for the source cassettes
- Thanks to Charlie Miller for the transfer
- Thanks to the folks responsible for the shnid83494 nak700 source which provides the last beat of "Mexicali Blues" and the majority of the tuning before "To Lay Me Down", approximately 0:45, as well as the crowd after "Fire On The Mountain", approximately 0:10
- Between song transitions smoothed
- Tape flip in "Drums" has been smoothed and is virtually transparent

Set One:
s1 t01. Crowd/tuning
s1 t02. Alabama Getaway ->
s1 t03. Greatest Story Ever Told
s1 t04. Friend Of The Devil
s1 t05. CC Rider
s1 t06. Althea
s1 t07. Mama Tried ->
s1 t08. Mexicali Blues
s1 t09. To Lay Me Down
s1 t10. Minglewood Blues
s1 t11. Tennessee Jed ->
s1 t12. The Music Never Stopped

Set Two:
s2 t01. Crowd/tuning
s2 t02. Jam (w/o Jerry)->
s2 t03. Passenger
s2 t04. Scarlet Begonias ->
s2 t05. Fire On The Mountain
s2 t06. Playing In The Band ->
s2 t07. Drums ->
s2 t08. Space ->
s2 t09. Not Fade Away ->
s2 t10. Wharf Rat ->
s2 t11. Around & Around
Encore
s2 t12. US Blues


    length     expanded size    cdr  WAVE problems  fmt   ratio  filename
     1:08.867      39667244 B   cxx   --   ---xx   flac  0.6451  gd81-03-05 s1 t01 Crowd.flac
     5:19.827     184220204 B   cxx   --   ---xx   flac  0.6852  gd81-03-05 s1 t02 Alabama Getaway.flac
     4:06.600     142041644 B   cxx   --   ---xx   flac  0.6824  gd81-03-05 s1 t03 Greatest Story Ever Told.flac
     9:28.347     327367724 B   cxx   --   ---xx   flac  0.6736  gd81-03-05 s1 t04 Friend Of The Devil.flac
     7:46.813     268884524 B   cxx   --   ---xx   flac  0.6774  gd81-03-05 s1 t05 CC Rider.flac
     8:08.080     281134124 B   cxx   --   ---xx   flac  0.6741  gd81-03-05 s1 t06 Althea.flac
     2:32.600      87897644 B   cxx   --   ---xx   flac  0.6823  gd81-03-05 s1 t07 Mama Tried.flac
     5:22.387     185694764 B   cxx   --   ---xx   flac  0.6627  gd81-03-05 s1 t08 Mexicali Blues.flac
     9:50.240     339978284 B   cxx   --   ---xx   flac  0.6649  gd81-03-05 s1 t09 To Lay Me Down.flac
     7:17.600     252057644 B   cxx   --   ---xx   flac  0.6832  gd81-03-05 s1 t10 New Minglewood Blues.flac
     8:51.387     306078764 B   cxx   --   ---xx   flac  0.6783  gd81-03-05 s1 t11 Tennessee Jed.flac
     7:59.445     276160340 B   cxx   --   ---xx   flac  0.6860  gd81-03-05 s1 t12 The Music Never Stopped.flac
     3:01.960     104809004 B   cxx   --   ---xx   flac  0.6830  gd81-03-05 s2 t01 Crowd.flac
     7:24.747     256174124 B   cxx   --   ---xx   flac  0.7000  gd81-03-05 s2 t02 Jam.flac
     5:18.360     183375404 B   cxx   --   ---xx   flac  0.6930  gd81-03-05 s2 t03 Passenger.flac
    11:30.667     397824044 B   cxx   --   ---xx   flac  0.6774  gd81-03-05 s2 t04 Scarlet Begonias.flac
    12:02.627     416233004 B   cxx   --   ---xx   flac  0.6771  gd81-03-05 s2 t05 Fire On The Mountain.flac
    14:13.880     491834924 B   cxx   --   ---xx   flac  0.6918  gd81-03-05 s2 t06 Playing In The Band.flac
    11:48.093     407861804 B   cxx   --   ---xx   flac  0.6637  gd81-03-05 s2 t07 Drums.flac
     4:13.507     146019884 B   cxx   --   ---xx   flac  0.6677  gd81-03-05 s2 t08 Space.flac
     9:29.533     328051244 B   cxx   --   ---xx   flac  0.6926  gd81-03-05 s2 t09 Not Fade Away.flac
    11:29.120     396933164 B   cxx   --   ---xx   flac  0.6864  gd81-03-05 s2 t10 Wharf Rat.flac
     8:44.867     302323244 B   cxx   --   ---xx   flac  0.6979  gd81-03-05 s2 t11 Around & Around.flac
     5:16.466     182284700 B   cxx   --   ---xx   flac  0.6953  gd81-03-05 s2 t12 US Blues.flac
   182:26.018    6304907448 B                            0.6811  (24 files)

No errors occured.


Show Checksums
ffp
gd81-03-05 s1 t01 Crowd.flac:bdf9949ba1ba8f8bc503cdeff0d15327
gd81-03-05 s1 t02 Alabama Getaway.flac:68c641ac2bc5309c0a801c5d33fa7307
gd81-03-05 s1 t03 Greatest Story Ever Told.flac:757a2a346557184a2fdd1e9b369eaa5b
gd81-03-05 s1 t04 Friend Of The Devil.flac:d1d42c2f6b24db089db78cf082e9098b
gd81-03-05 s1 t05 CC Rider.flac:a509f4cdd92ec9b38af6ab1b2350fae5
gd81-03-05 s1 t06 Althea.flac:57a85824bba270c397c9295a448ca418
gd81-03-05 s1 t07 Mama Tried.flac:64abddb7aa8ddab39a45afc70a08a1de
gd81-03-05 s1 t08 Mexicali Blues.flac:3b25a974beae97f10076c7562cc74fb9
gd81-03-05 s1 t09 To Lay Me Down.flac:fc63069af1d3ebe703f8007604b28923
gd81-03-05 s1 t10 New Minglewood Blues.flac:6dbbe0e8063c4461e869ffda39dcf5f3
gd81-03-05 s1 t11 Tennessee Jed.flac:7d2b479b26056d3563ee59e0bab50ad3
gd81-03-05 s1 t12 The Music Never Stopped.flac:7c081235f5f9df102e76bf34b74c551a
gd81-03-05 s2 t01 Crowd.flac:2fee41e9a05feb7a163296e4df087e15
gd81-03-05 s2 t02 Jam.flac:7f5a264ef018fd48a5890125a20b0d37
gd81-03-05 s2 t03 Passenger.flac:77ad3f016a751025a8c584f9ed4b70f3
gd81-03-05 s2 t04 Scarlet Begonias.flac:a1f71b79d8845d74681fb305f094fa1d
gd81-03-05 s2 t05 Fire On The Mountain.flac:092d611824623141a24265d47297664d
gd81-03-05 s2 t06 Playing In The Band.flac:6243baa079294928be6c733f6b6c9d4f
gd81-03-05 s2 t07 Drums.flac:bbb5a26b185ff7df5cec009e6ef19d1d
gd81-03-05 s2 t08 Space.flac:7acebcec61c8fa3439803f5749604847
gd81-03-05 s2 t09 Not Fade Away.flac:c2c43bfedd633d302c4ca5be3e1d269e
gd81-03-05 s2 t10 Wharf Rat.flac:93a0e0060a1605c60c9b065cfc294ebe
gd81-03-05 s2 t11 Around & Around.flac:77a8a99bdfbcadf749d9f69403a6871c
gd81-03-05 s2 t12 US Blues.flac:5da8afebd47d9b7800f2fc409a712f39
flac-md5
35a6a072256672179cbdd13dc634bab6 *gd81-03-05 s1 t01 Crowd.flac
1cd4d6a8eae391f9ada33a8968976f42 *gd81-03-05 s1 t02 Alabama Getaway.flac
2330aa188a4abdc2178576289d258c6b *gd81-03-05 s1 t03 Greatest Story Ever Told.flac
c3851e5dae8fbf3ede7f09022ec8f586 *gd81-03-05 s1 t04 Friend Of The Devil.flac
be347b02ae7c4df0e97de140a649ed72 *gd81-03-05 s1 t05 CC Rider.flac
daa8b8c8e847ff7d8032c83a050707cf *gd81-03-05 s1 t06 Althea.flac
3892a25f92bf167bac78227cca9b5c03 *gd81-03-05 s1 t07 Mama Tried.flac
0f45c04bc95597e5d571e529d251b14b *gd81-03-05 s1 t08 Mexicali Blues.flac
1515c21763a4884b6efdb537c4506e15 *gd81-03-05 s1 t09 To Lay Me Down.flac
0b84d6e91e5bc88f959bffd1dded8a34 *gd81-03-05 s1 t10 New Minglewood Blues.flac
1436759b7f9b11fea0f86adfb2dfec71 *gd81-03-05 s1 t11 Tennessee Jed.flac
5f6a2fc70bdfcd1067c77cb85c6195b6 *gd81-03-05 s1 t12 The Music Never Stopped.flac
bbe4c0b91349b54608414fd2e0ab6fd9 *gd81-03-05 s2 t01 Crowd.flac
2339c6ba6ad1a5383ec44337ab9912e6 *gd81-03-05 s2 t02 Jam.flac
6a68c313b178ff3309048c4ddf768258 *gd81-03-05 s2 t03 Passenger.flac
dac8ecadfec009a9501da6c2f4300fb8 *gd81-03-05 s2 t04 Scarlet Begonias.flac
40f5180c3ced4c012e63cc2a463bf48e *gd81-03-05 s2 t05 Fire On The Mountain.flac
0371c863d2d65627e42cb2fc4982d5fe *gd81-03-05 s2 t06 Playing In The Band.flac
736d3a0d1697d3731a5d2c60cb96111d *gd81-03-05 s2 t07 Drums.flac
468e3b2cdf84aaa43c20fe1e7dd755a0 *gd81-03-05 s2 t08 Space.flac
b009d16f650f3c5246a590dd792b460d *gd81-03-05 s2 t09 Not Fade Away.flac
36aa0955c959924791b673fdd8248d25 *gd81-03-05 s2 t10 Wharf Rat.flac
9d9e24b5829b67a6c3acdd6b8f583187 *gd81-03-05 s2 t11 Around & Around.flac
8ec6ced23e0c5f40ae6def3789fe7c4e *gd81-03-05 s2 t12 US Blues.flac

Comments
Add Comment
Other Sources (comments)
Audience recording by Jim... (0) Set 2 soundboard, minus... (1) flac16; Recording by... (1) flac24; Recording by... (0) flac16; Recording by... (0) flac16; Recorded By... (0) flac16; AUD: Unknown... (0) flac16; Source Info:... (0)
Date User Comment