Browse Collections Artists Sources   Search Dates

Add Show    List Management    Help


Grateful Dead 03/06/81
Stanley Theater, Pittsburgh, PA
Comments Add Comment    Source Collectors    Add to Collection    Add to Want List    History
Source # 139742 Other Sources
Entered by Matt Vernon
Checksums ffp , flac-md5
Disc Counts 0 / 0
Media Size
Date Circulated
Date Added
11/09/2017
11/09/2017
Source Summary flac24; Source Info: Frank Streeter's Master FOB Audience Cassette; Beyer M160 > Sony TC-D5M (Maxell MX90); Transfer Info: Cassette Master (Nakamichi CR-7A) > Tascam DA-3000 (DSF 1-bit/5.8 MHz)> KORG AudioGate 4 > Adobe Audition 3.0> TLH flac2496; Transfer by Charlie Miller; Mastered by Scott Clugston 
  Archive
Source Information - Download Text | Download Zip
Grateful Dead
Stanley Theatre
Pittsburgh, PA
Friday March 6, 1981

Source Info:
Frank Streeter's Master FOB Audience Cassette; Beyer M160 > Sony TC-D5M (Maxell MX90)

Transfer Info:
Cassette Master (Nakamichi CR-7A) > Tascam DA-3000 (DSF 1-bit/5.8 MHz)> KORG AudioGate 4 > Adobe Audition 3.0> TLH flac2496

Transfer by Charlie Miller
Mastered by Scott Clugston
11/8/17

Notes:
- Thanks to Frank Streeter for the source cassettes
- Thanks to Charlie Miller for the transfer
- Thanks to the folks responsible for the shnid83827 nak700 source which provides the outro of "Row Jimmy" and the transition into "Little Red Rooster" (0:16), the crowd after "Deal" and a patch in "Drums" from x:xx thru x:xx
- Between song transitions smoothed
- Tape flip in "Drums" has been edited and is transparent

Set One:
s1 t01. Crowd/tuning
s1 t02. Jack Straw
s1 t03. Peggy O
s1 t04. Cassidy
s1 t05. They Love Each Other ->
s1 t06. El Paso
s1 t07. Row Jimmy ->
s1 t08. Little Red Rooster
s1 t09. Brown Eyed Women
s1 t10. Let It Grow ->
s1 t11. Deal

Set Two:
s2 t01. Crowd/tuning
s2 t02. Samson & Delilah
s2 t03. It Must Have Been The Roses
s2 t04. Estimated Prophet ->
s2 t05. Franklin's Tower ->
s2 t06. Drums ->
s2 t07. Space ->
s2 t08. The Other One ->
s2 t09. Stella Blue ->
s2 t10. Sugar Magnolia
Encore:
s2 t11. Don't Ease Me In


      length     expanded size    cdr  WAVE problems  fmt   ratio  filename
     1:32.253      53137964 B   cxx   --   ---xx   flac  0.6586  gd81-03-06 s1 t01 Crowd.flac
     5:32.107     191293484 B   cxx   --   ---xx   flac  0.6789  gd81-03-06 s1 t02 Jack Straw.flac
     8:00.893     276994604 B   cxx   --   ---xx   flac  0.6695  gd81-03-06 s1 t03 Peggy O.flac
     4:51.587     167953964 B   cxx   --   ---xx   flac  0.6752  gd81-03-06 s1 t04 Cassidy.flac
     6:47.200     234547244 B   cxx   --   ---xx   flac  0.6697  gd81-03-06 s1 t05 They Love Each Other.flac
     6:13.947     215393324 B   cxx   --   ---xx   flac  0.6688  gd81-03-06 s1 t06 El Paso.flac
    10:42.547     370106924 B   cxx   --   ---xx   flac  0.6679  gd81-03-06 s1 t07 Row Jimmy.flac
     8:53.973     307568684 B   cxx   --   ---xx   flac  0.6786  gd81-03-06 s1 t08 Little Red Rooster.flac
     6:17.373     217367084 B   cxx   --   ---xx   flac  0.6779  gd81-03-06 s1 t09 Brown Eyed Women.flac
    12:01.120     415365164 B   cxx   --   ---xx   flac  0.6839  gd81-03-06 s1 t10 Let It Grow.flac
     7:56.869     274676558 B   cxx   --   ---xx   flac  0.6840  gd81-03-06 s1 t11 Deal.flac
     1:42.427      58997804 B   cxx   --   ---xx   flac  0.6561  gd81-03-06 s2 t01 Crowd.flac
     8:01.987     277624364 B   cxx   --   ---xx   flac  0.6821  gd81-03-06 s2 t02 Samson & Delilah.flac
     7:26.560     257218604 B   cxx   --   ---xx   flac  0.6665  gd81-03-06 s2 t03 It Must Have Been The Roses.flac
    11:26.440     395389484 B   cxx   --   ---xx   flac  0.6822  gd81-03-06 s2 t04 Estimated Prophet.flac
    15:06.987     522424364 B   cxx   --   ---xx   flac  0.6845  gd81-03-06 s2 t05 Franklin's Tower.flac
     9:34.667     331008044 B   cxx   --   ---xx   flac  0.5930  gd81-03-06 s2 t06 Drums.flac
     6:41.787     231429164 B   cxx   --   ---xx   flac  0.6567  gd81-03-06 s2 t07 Space.flac
    10:58.813     379476524 B   cxx   --   ---xx   flac  0.6728  gd81-03-06 s2 t08 The Other One.flac
    10:14.627     354025004 B   cxx   --   ---xx   flac  0.6640  gd81-03-06 s2 t09 Stella Blue.flac
     8:34.560     296386604 B   cxx   --   ---xx   flac  0.6864  gd81-03-06 s2 t10 Sugar Magnolia.flac
     3:16.869     113396630 B   cxx   --   ---xx   flac  0.6819  gd81-03-06 s2 t11 Don't Ease Me In.flac
   171:55.591    5941781588 B                            0.6709  (22 files)

No errors occured.


Show Checksums
ffp
gd81-03-06 s1 t01 Crowd.flac:9599ee46ec5c132b7f9dd6cddefe23cb
gd81-03-06 s1 t02 Jack Straw.flac:38541f5902384016c8bf3da2d38c150f
gd81-03-06 s1 t03 Peggy O.flac:178d01cde2186543ffb7fb25355766ea
gd81-03-06 s1 t04 Cassidy.flac:824a225a002265f5a920dd436b6997d2
gd81-03-06 s1 t05 They Love Each Other.flac:ba98fd8cb2f1de2c26ff9c25fd8eac06
gd81-03-06 s1 t06 El Paso.flac:61974f775d290caaef71f9cc28c7fba8
gd81-03-06 s1 t07 Row Jimmy.flac:6ff0cc24f23296af511876fd81edfadb
gd81-03-06 s1 t08 Little Red Rooster.flac:15901b3bb938c5dbf1034d602aae6247
gd81-03-06 s1 t09 Brown Eyed Women.flac:7c4741792d669937bc21b261eac79482
gd81-03-06 s1 t10 Let It Grow.flac:4955d9793ccb452a8781866aac7b12ca
gd81-03-06 s1 t11 Deal.flac:32e41a887a0f1248a95ad0f19848f713
gd81-03-06 s2 t01 Crowd.flac:13727a0a97dd01baae38da40a3f3c3d3
gd81-03-06 s2 t02 Samson & Delilah.flac:9bb37a4b6c78a448cbebfaaa2db04a5e
gd81-03-06 s2 t03 It Must Have Been The Roses.flac:24c79b3f955c42475688cda3fe52f72e
gd81-03-06 s2 t04 Estimated Prophet.flac:dec5eae327cf48c78d50b9b113f9d221
gd81-03-06 s2 t05 Franklin's Tower.flac:7c751ca455cb3dd8cf8446c3d8142b8d
gd81-03-06 s2 t06 Drums.flac:3ec43dc5c70eae611581c26e5d86f227
gd81-03-06 s2 t07 Space.flac:ae822500f8e5469acb14c9a2eb53f0ef
gd81-03-06 s2 t08 The Other One.flac:04a0305801c9443b439b0ae26ebee8d7
gd81-03-06 s2 t09 Stella Blue.flac:adfe67b70524ee694a8762208f6feedd
gd81-03-06 s2 t10 Sugar Magnolia.flac:5fd18dd779cfb475fdadd661348384b6
gd81-03-06 s2 t11 Don't Ease Me In.flac:5f3677aafd907fd4cdec80611f9fcf9f
flac-md5
f6406bfaf50c1cfb197ea6ff52107e32 *gd81-03-06 s1 t01 Crowd.flac
32d15f7b2a079467e761af72ec3e6654 *gd81-03-06 s1 t02 Jack Straw.flac
6bc6d6d91d6bcf7b5054ebd914cdf9e3 *gd81-03-06 s1 t03 Peggy O.flac
9536da480caeae95c1dac0b1942ff8df *gd81-03-06 s1 t04 Cassidy.flac
2c77b563943e05c69376fd058ad9b4fc *gd81-03-06 s1 t05 They Love Each Other.flac
5a44359658f72289b2b89a8eb3f73bfe *gd81-03-06 s1 t06 El Paso.flac
06ce417b3ca71a078733c7b62d518c4d *gd81-03-06 s1 t07 Row Jimmy.flac
9fb408c2620681124a01c99ca1abc8a9 *gd81-03-06 s1 t08 Little Red Rooster.flac
708cdb0f7a2cfaf213f14b73c09a6389 *gd81-03-06 s1 t09 Brown Eyed Women.flac
13bc73ae18b073b4ddb603f3b96794cc *gd81-03-06 s1 t10 Let It Grow.flac
fed5b0ce9066161df65472fa1c6351fc *gd81-03-06 s1 t11 Deal.flac
fd45ac556bfbdedae182d6024044cea0 *gd81-03-06 s2 t01 Crowd.flac
ac30fe87167919ae1d1cc9c4ad43a591 *gd81-03-06 s2 t02 Samson & Delilah.flac
f927e0893d562fabf9f82b7a194a2633 *gd81-03-06 s2 t03 It Must Have Been The Roses.flac
98e4f92c507313b210dfdb02038d86cc *gd81-03-06 s2 t04 Estimated Prophet.flac
f45f1aff138a55d4e1be5018721f672a *gd81-03-06 s2 t05 Franklin's Tower.flac
030b4f830156e9cfe2aa261aace97893 *gd81-03-06 s2 t06 Drums.flac
9c4a00a002b85a160cd15f47999ad518 *gd81-03-06 s2 t07 Space.flac
a3b0fc1d979bdea375dc08ef407b19a8 *gd81-03-06 s2 t08 The Other One.flac
455561c3608bbc642b9cedcca930847f *gd81-03-06 s2 t09 Stella Blue.flac
6f157ca7e2cf89d75660728d57f327e5 *gd81-03-06 s2 t10 Sugar Magnolia.flac
5f48eda492f7a280a94557c69692e2a1 *gd81-03-06 s2 t11 Don't Ease Me In.flac

Comments
Add Comment
Other Sources (comments)
Audience recording by Jim... (0) Set 2 soundboard, minus... (1) flac16; Recording by... (0) flac16; Recording by... (0) flac24; Recording by... (0) flac16; Recorded By... (0) flac16; Source Info:... (0)
Date User Comment