Browse Collections Artists Sources   Search Dates

Add Show    List Management    Help


Grateful Dead 03/20/81
Rainbow Theater, London, England
Comments Add Comment    Source Collectors    Add to Collection    Add to Want List    History
Source # 139743 Other Sources
Entered by Matt Vernon
Checksums ffp , flac-md5
Disc Counts 0 / 0
Media Size
Date Circulated
Date Added
11/09/2017
11/09/2017
Source Summary flac16; Source Info: 1st Set: Frank Streeter's Master FOB Audience Cassette; Sennheiser 421 > Sony TC-D5M (TDK MA90); 2nd Set: Master FOB Audience Cassette; AKG 224> Sony TC-D5M > 1 cassette gen (Maxell UDXLII); Transfer Info: Cassette Master (Nakamichi CR-7A) > Tascam DA-3000 (DSF 1-bit/5.8 MHz)> KORG AudioGate 4 > Adobe Audition 3.0> TLH flac2496; Transfer by Charlie Miller; Mastered by Scott Clugston 
  Archive
Source Information - Download Text | Download Zip
Grateful Dead
Rainbow Theatre
London, England
Friday March 20, 1981

This is a 16/44 fileset. 24 bit to 16 bit via dBpoweramp

Source Info:
1st Set:
Frank Streeter's Master FOB Audience Cassette; Sennheiser 421 > Sony TC-D5M (TDK MA90)

2nd Set:
Master FOB Audience Cassette; AKG 224> Sony TC-D5M > 1 cassette gen (Maxell UDXLII)

Transfer Info:
Cassette Master (Nakamichi CR-7A) > Tascam DA-3000 (DSF 1-bit/5.8 MHz)> KORG AudioGate 4 > Adobe Audition 3.0> TLH flac2496

Transfer by Charlie Miller
Mastered by Scott Clugston
11/8/17

Notes:
- Thanks to Frank Streeter for the source cassettes
- Thanks to Charlie Miller for the transfer
- Thanks to the folks responsible for shnid9198 unknown audience source which provides from 8:20 thru 8:33 of "Wharf Rat"
- Between song transitions smoothed
- Tape flip in the Jam out of "He's Gone" has been smoothed and is virtually transparent
- US Blues encore is missing

Set One:
s1 t01. Intro/Crowd
s1 t02. Feel Like A Stranger
s1 t03. Friend Of The Devil
s1 t04. CC Rider
s1 t05. Althea
s1 t06. Mama Tried ->
s1 t07. Mexicali Blues
s1 t08. Loser
s1 t09. New Minglewood Blues
s1 t10. Candyman ->
s1 t11. Looks Like Rain ->
s1 t12. Deal

Set Two:
s2 t01. Scarlet  Begonias
s2 t02. Fire On The Mountain ->
s2 t03. Lost Sailor ->
s2 t04. Saint Of Circumstance
s2 t05. He's Gone -> Jam ->
s2 t06. Drums ->
s2 t07. Space ->
s2 t08. Truckin' ->
s2 t09. Wharf Rat ->
s2 t10. Around & Around ->
s2 t11. Johnny B. Goode
Encore
s2 xxx. US Blues (missing)


     length     expanded size    cdr  WAVE problems  fmt   ratio  filename
     2:19.55       24649004 B   ---   --   ---xx   flac  0.5846  gd81-03-20 s1 t01 Intro.flac
     7:46.42       82301228 B   ---   --   ---xx   flac  0.6490  gd81-03-20 s1 t02 Feel Like A Stranger.flac
     8:55.47       94484588 B   ---   --   ---xx   flac  0.6251  gd81-03-20 s1 t03 Friend Of The Devil.flac
     7:37.72       80784188 B   ---   --   ---xx   flac  0.6380  gd81-03-20 s1 t04 CC Rider.flac
     8:49.51       93435596 B   ---   --   ---xx   flac  0.6321  gd81-03-20 s1 t05 Althea.flac
     2:30.36       26544716 B   ---   --   ---xx   flac  0.6494  gd81-03-20 s1 t06 Mama Tried.flac
     4:35.57       48644108 B   ---   --   ---xx   flac  0.6512  gd81-03-20 s1 t07 Mexicali Blues.flac
     8:05.45       85659884 B   ---   --   ---xx   flac  0.6208  gd81-03-20 s1 t08 Loser.flac
     7:29.47       79314188 B   ---   --   ---xx   flac  0.6500  gd81-03-20 s1 t09 Minglewood Blues.flac
     7:14.05       76569404 B   ---   --   ---xx   flac  0.6126  gd81-03-20 s1 t10 Candyman.flac
     7:52.17       83300828 B   ---   --   ---xx   flac  0.6151  gd81-03-20 s1 t11 Looks Like Rain.flac
     8:20.21       88249436 B   ---   --   ---xx   flac  0.6672  gd81-03-20 s1 t12 Deal.flac
    10:42.37      113335868 B   ---   --   ---xx   flac  0.7117  gd81-03-20 s2 t01 Scarlet Begonias.flac
    11:41.20      123703484 B   ---   --   ---xx   flac  0.7049  gd81-03-20 s2 t02 Fire On The Mountain.flac
     6:07.12       64767068 B   ---   --   ---xx   flac  0.6831  gd81-03-20 s2 t03 Lost Sailor.flac
     6:17.68       66662780 B   ---   --   ---xx   flac  0.7176  gd81-03-20 s2 t04 Saint Of Circumstance.flac
    13:01.42      137867228 B   ---   --   ---xx   flac  0.6734  gd81-03-20 s2 t05 He's Gone.flac
    10:08.38      107340620 B   ---   --   ---xx   flac  0.6455  gd81-03-20 s2 t06 Drums.flac
     5:59.47       63438188 B   ---   --   ---xx   flac  0.6515  gd81-03-20 s2 t07 Space.flac
     9:14.27       97789148 B   ---   --   ---xx   flac  0.7102  gd81-03-20 s2 t08 Truckin'.flac
     8:40.23       91782140 B   ---   --   ---xx   flac  0.6746  gd81-03-20 s2 t09 Wharf Rat.flac
     4:04.70       43206284 B   ---   --   ---xx   flac  0.7261  gd81-03-20 s2 t10 Around & Around.flac
     4:12.22       44504588 B   ---   --   ---xx   flac  0.7344  gd81-03-20 s2 t11 Johnny B. Goode.flac
   171:48.01     1818334564 B                            0.6638  (23 files)

No errors occured.


Show Checksums
ffp
gd81-03-20 s1 t01 Intro.flac:65738e24b877785b2edbe740466e5952
gd81-03-20 s1 t02 Feel Like A Stranger.flac:63d45c3340f4a410f7e11d3c08ce7421
gd81-03-20 s1 t03 Friend Of The Devil.flac:fc2e0e549fb9800b3637320f33b7fd62
gd81-03-20 s1 t04 CC Rider.flac:00e876e58c34fa9e4c3da11f11a61fa5
gd81-03-20 s1 t05 Althea.flac:827b6fb01a7af5e83a43855727944ba3
gd81-03-20 s1 t06 Mama Tried.flac:877b8a0840c6f5415754b49a670ce642
gd81-03-20 s1 t07 Mexicali Blues.flac:7e3a89d440b018b7a7c2d23d4b91de9f
gd81-03-20 s1 t08 Loser.flac:cc47ed50fff960c3f4a08f162f23625a
gd81-03-20 s1 t09 Minglewood Blues.flac:22354db0e2d3ec7184dbc425631c64ab
gd81-03-20 s1 t10 Candyman.flac:668d25ffa4d0d3a7a8ccfb2ee3fe8d8e
gd81-03-20 s1 t11 Looks Like Rain.flac:4411160d40af9f06e1ee82e0252c60ec
gd81-03-20 s1 t12 Deal.flac:fcb20a4d555f12c365f82e3d499f7996
gd81-03-20 s2 t01 Scarlet Begonias.flac:344e197b9a356f31d4f89706b79b9a51
gd81-03-20 s2 t02 Fire On The Mountain.flac:9ace3f5708aa34c8682ccf26e720a2e1
gd81-03-20 s2 t03 Lost Sailor.flac:3b32ef5d2105d4799f290522bea8add7
gd81-03-20 s2 t04 Saint Of Circumstance.flac:4c517cd550ff50775442cf9537f089b4
gd81-03-20 s2 t05 He's Gone.flac:1dae28a1bed308106c0b47ee374580f0
gd81-03-20 s2 t06 Drums.flac:22efb0f61ed3acf38038fe93ad5133ef
gd81-03-20 s2 t07 Space.flac:0340b60bfc78ef0829b3b59b9ab4c92a
gd81-03-20 s2 t08 Truckin'.flac:9f88075e8e3500c39a7ae8f272822623
gd81-03-20 s2 t09 Wharf Rat.flac:382b0eb69efcf626c94b40acf87d10e2
gd81-03-20 s2 t10 Around & Around.flac:89ceb34fe6be43c447c26f14e45c7cdf
gd81-03-20 s2 t11 Johnny B. Goode.flac:478747a1a8306602107b632424f4d4c8
flac-md5
fabb1981847c5c06522273f5a4890134 *gd81-03-20 s1 t01 Intro.flac
2f0c02512e7e776ce0247dc50a66d7f1 *gd81-03-20 s1 t02 Feel Like A Stranger.flac
2cccb06a2df4ace15787ee43cb297f13 *gd81-03-20 s1 t03 Friend Of The Devil.flac
be036fe711efb99061bfd25c5d2ac08f *gd81-03-20 s1 t04 CC Rider.flac
30610a36aaf578170d74e583e95854b3 *gd81-03-20 s1 t05 Althea.flac
2b06f88204f59e383bf6e824f73439fa *gd81-03-20 s1 t06 Mama Tried.flac
8bf49b342ad599ea72b19c026ec00ed4 *gd81-03-20 s1 t07 Mexicali Blues.flac
727778bf9c4651adc11a4fa815449556 *gd81-03-20 s1 t08 Loser.flac
254ff5ca012a73255c76041822d23adf *gd81-03-20 s1 t09 Minglewood Blues.flac
aac9fac527f93eb2cdfe68102c8f3cd8 *gd81-03-20 s1 t10 Candyman.flac
0a620e96a8b5f66e7033b0fe47899984 *gd81-03-20 s1 t11 Looks Like Rain.flac
1863515ed1b4ffb40ab51b9484f0cbbe *gd81-03-20 s1 t12 Deal.flac
729b871dfa85ca21dfe7cb14facd3a92 *gd81-03-20 s2 t01 Scarlet Begonias.flac
85313ce0223c676d22e4d334e4160f39 *gd81-03-20 s2 t02 Fire On The Mountain.flac
a85b906e9854d59c9c9fa8da18e1d046 *gd81-03-20 s2 t03 Lost Sailor.flac
1904c1913430ff76984947cf2a7cf1a3 *gd81-03-20 s2 t04 Saint Of Circumstance.flac
3ed31aec6eb53aceb5e761af1411d514 *gd81-03-20 s2 t05 He's Gone.flac
f0c71f797870421ea34f91e4753c70fa *gd81-03-20 s2 t06 Drums.flac
aef4d2ed0f42a9ac8054ee43ca51a21e *gd81-03-20 s2 t07 Space.flac
e5207783e9adf7172e85b5bbf3775768 *gd81-03-20 s2 t08 Truckin'.flac
2077013693ecacc939d1dd7dd43972c8 *gd81-03-20 s2 t09 Wharf Rat.flac
42440a7577da8c20b6c27dfe18499c2e *gd81-03-20 s2 t10 Around & Around.flac
cbcfefa8684d38198b209a10139b118b *gd81-03-20 s2 t11 Johnny B. Goode.flac

Comments
Add Comment
Other Sources (comments)
MAC > C > C > D > CD; via... (4) AUD > MC > C > SB!Live > CD... (0) flac16; master... (0) flac24; soundboard... (0) flac16: Soundcheck... (0) flac24; Source Info:... (0)
Date User Comment