Browse Collections Artists Sources   Search Dates

Add Show    List Management    Help


Grateful Dead 03/20/81
Rainbow Theater, London, England
Comments Add Comment    Source Collectors    Add to Collection    Add to Want List    History
Source # 139744 Other Sources
Entered by Matt Vernon
Checksums ffp , flac-md5
Disc Counts 0 / 0
Media Size
Date Circulated
Date Added
11/09/2017
11/09/2017
Source Summary flac24; Source Info: 1st Set: Frank Streeter's Master FOB Audience assette; Sennheiser 421 > Sony TC-D5M (TDK MA90); 2nd Set: Master FOB Audience Cassette; AKG 224> Sony TC-D5M > 1 cassette gen (Maxell UDXLII); Transfer Info: Cassette Master (Nakamichi CR-7A) > Tascam DA-3000 (DSF 1-bit/5.8 MHz)> KORG AudioGate 4 > Adobe Audition 3.0> TLH flac2496; Transfer by Charlie Miller; Mastered by Scott Clugston 
  Archive
Source Information - Download Text | Download Zip
Grateful Dead
Rainbow Theatre
London, England
Friday March 20, 1981

Source Info:
1st Set:
Frank Streeter's Master FOB Audience Cassette; Sennheiser 421 > Sony TC-D5M (TDK MA90)

2nd Set:
Master FOB Audience Cassette; AKG 224> Sony TC-D5M > 1 cassette gen (Maxell UDXLII)

Transfer Info:
Cassette Master (Nakamichi CR-7A) > Tascam DA-3000 (DSF 1-bit/5.8 MHz)> KORG AudioGate 4 > Adobe Audition 3.0> TLH flac2496

Transfer by Charlie Miller
Mastered by Scott Clugston
11/8/17

Notes:
- Thanks to Frank Streeter for the source cassettes
- Thanks to Charlie Miller for the transfer
- Thanks to the folks responsible for shnid9198 unknown audience source which provides from 8:20 thru 8:33 of "Wharf Rat"
- Between song transitions smoothed
- Tape flip in the Jam out of "He's Gone" has been smoothed and is virtually transparent
- US Blues encore is missing

Set One:
s1 t01. Intro/Crowd
s1 t02. Feel Like A Stranger
s1 t03. Friend Of The Devil
s1 t04. CC Rider
s1 t05. Althea
s1 t06. Mama Tried ->
s1 t07. Mexicali Blues
s1 t08. Loser
s1 t09. New Minglewood Blues
s1 t10. Candyman ->
s1 t11. Looks Like Rain ->
s1 t12. Deal

Set Two:
s2 t01. Scarlet  Begonias
s2 t02. Fire On The Mountain ->
s2 t03. Lost Sailor ->
s2 t04. Saint Of Circumstance
s2 t05. He's Gone -> Jam ->
s2 t06. Drums ->
s2 t07. Space ->
s2 t08. Truckin' ->
s2 t09. Wharf Rat ->
s2 t10. Around & Around ->
s2 t11. Johnny B. Goode
Encore
s2 xxx. US Blues (missing)


     length     expanded size    cdr  WAVE problems  fmt   ratio  filename
     2:19.733      80486444 B   cxx   --   ---xx   flac  0.6626  gd81-03-20 s1 t01 Intro.flac
     7:46.560     268738604 B   cxx   --   ---xx   flac  0.6925  gd81-03-20 s1 t02 Feel Like A Stranger.flac
     8:55.627     308521004 B   cxx   --   ---xx   flac  0.6836  gd81-03-20 s1 t03 Friend Of The Devil.flac
     7:37.960     263785004 B   cxx   --   ---xx   flac  0.6887  gd81-03-20 s1 t04 CC Rider.flac
     8:49.680     305095724 B   cxx   --   ---xx   flac  0.6859  gd81-03-20 s1 t05 Althea.flac
     2:30.480      86676524 B   cxx   --   ---xx   flac  0.6918  gd81-03-20 s1 t06 Mama Tried.flac
     4:35.760     158837804 B   cxx   --   ---xx   flac  0.6923  gd81-03-20 s1 t07 Mexicali Blues.flac
     8:05.600     279705644 B   cxx   --   ---xx   flac  0.6823  gd81-03-20 s1 t08 Loser.flac
     7:29.627     258985004 B   cxx   --   ---xx   flac  0.6929  gd81-03-20 s1 t09 Minglewood Blues.flac
     7:14.067     250022444 B   cxx   --   ---xx   flac  0.6796  gd81-03-20 s1 t10 Candyman.flac
     7:52.227     272002604 B   cxx   --   ---xx   flac  0.6806  gd81-03-20 s1 t11 Looks Like Rain.flac
     8:20.288     288165656 B   cxx   --   ---xx   flac  0.6978  gd81-03-20 s1 t12 Deal.flac
    10:42.493     370076204 B   cxx   --   ---xx   flac  0.7445  gd81-03-20 s2 t01 Scarlet Begonias.flac
    11:41.267     403929644 B   cxx   --   ---xx   flac  0.7424  gd81-03-20 s2 t02 Fire On The Mountain.flac
     6:07.160     211484204 B   cxx   --   ---xx   flac  0.7359  gd81-03-20 s2 t03 Lost Sailor.flac
     6:17.907     217674284 B   cxx   --   ---xx   flac  0.7465  gd81-03-20 s2 t04 Saint Of Circumstance.flac
    13:01.560     450178604 B   cxx   --   ---xx   flac  0.7325  gd81-03-20 s2 t05 He's Gone.flac
    10:08.507     350499884 B   cxx   --   ---xx   flac  0.7180  gd81-03-20 s2 t06 Drums.flac
     5:59.627     207145004 B   cxx   --   ---xx   flac  0.7207  gd81-03-20 s2 t07 Space.flac
     9:14.360     319311404 B   cxx   --   ---xx   flac  0.7385  gd81-03-20 s2 t08 Truckin'.flac
     8:40.307     299696684 B   cxx   --   ---xx   flac  0.7247  gd81-03-20 s2 t09 Wharf Rat.flac
     4:04.933     141081644 B   cxx   --   ---xx   flac  0.7435  gd81-03-20 s2 t10 Around & Around.flac
     4:12.273     145309184 B   cxx   --   ---xx   flac  0.7421  gd81-03-20 s2 t11 Johnny B. Goode.flac
   171:48.000    5937409204 B                            0.7120  (23 files)

No errors occured.


Show Checksums
ffp
gd81-03-20 s1 t01 Intro.flac:2bdd8e990658b22580818585392ee150
gd81-03-20 s1 t02 Feel Like A Stranger.flac:5b812c763a70499a2b75b2b5666c0e69
gd81-03-20 s1 t03 Friend Of The Devil.flac:747c4e5014c49a557e6537ed7b0e4420
gd81-03-20 s1 t04 CC Rider.flac:e7229a55ba71dfaa068c0c3e9762fb6e
gd81-03-20 s1 t05 Althea.flac:8ad79a7d8cb6046762f8e609ad220bae
gd81-03-20 s1 t06 Mama Tried.flac:895f789ebe628f8aec922b94f2b30f68
gd81-03-20 s1 t07 Mexicali Blues.flac:4db2a969460af00a1a1dd9e40a419d0f
gd81-03-20 s1 t08 Loser.flac:8f20f8274715c6c408c26f18993430e3
gd81-03-20 s1 t09 Minglewood Blues.flac:356b50e23e3212bb33ae31a9f20b16ff
gd81-03-20 s1 t10 Candyman.flac:4667072c83245e7f9da987484901cf7a
gd81-03-20 s1 t11 Looks Like Rain.flac:aa8dd31239ac816fafbb91b46b2a78ad
gd81-03-20 s1 t12 Deal.flac:5bf8b64961cbd4d1e4dc80474ea4a12d
gd81-03-20 s2 t01 Scarlet Begonias.flac:0cbb808fe7d8c437b86e63fe726f7955
gd81-03-20 s2 t02 Fire On The Mountain.flac:8841b86a6f2cb76ebe3d6ac7ec98c260
gd81-03-20 s2 t03 Lost Sailor.flac:823e49bd836f1bc9840a90e1c230cf54
gd81-03-20 s2 t04 Saint Of Circumstance.flac:2d9c513f0aaca4612c18a5a60703d174
gd81-03-20 s2 t05 He's Gone.flac:2c2022e26cf197c7044caa86fad5d5d0
gd81-03-20 s2 t06 Drums.flac:14267c32ba61c63cfceef70d9ca51ccc
gd81-03-20 s2 t07 Space.flac:cddc4f879fe46fbb2a89fdffa050c1c8
gd81-03-20 s2 t08 Truckin'.flac:6aa2082537a37e1d96202434aab2a6b9
gd81-03-20 s2 t09 Wharf Rat.flac:7084f7e5951c2f8d2eb4338706486f65
gd81-03-20 s2 t10 Around & Around.flac:8e13f8315ee32e3fd2c5ff3ed3614893
gd81-03-20 s2 t11 Johnny B. Goode.flac:c59656ce881b23b4dc45b5f8162269a3
flac-md5
07da946dabf4d7874e694db5230be8cb *gd81-03-20 s1 t01 Intro.flac
6378b3dcd457c7dbf26e1ec49da8a312 *gd81-03-20 s1 t02 Feel Like A Stranger.flac
13935263d6cd8257931adef4011e648d *gd81-03-20 s1 t03 Friend Of The Devil.flac
0102e14accce722b8c41291be2420f33 *gd81-03-20 s1 t04 CC Rider.flac
4d47f1c4c9407053aaad07376c2c2c82 *gd81-03-20 s1 t05 Althea.flac
fcbce6ed0dd659fe00b6dc5a1d813e38 *gd81-03-20 s1 t06 Mama Tried.flac
27577f556d687c85851a83c48a341ea1 *gd81-03-20 s1 t07 Mexicali Blues.flac
1d7a62dbcad6f5f4ad3c506068740c6d *gd81-03-20 s1 t08 Loser.flac
acd266fa90833729c6239f568545b1a0 *gd81-03-20 s1 t09 Minglewood Blues.flac
efca564edc7cef8ad2207e56869b430c *gd81-03-20 s1 t10 Candyman.flac
d165c9fb872417acbb9b15559a0e895d *gd81-03-20 s1 t11 Looks Like Rain.flac
581fa2e06f0014cc1d748352d6b406e4 *gd81-03-20 s1 t12 Deal.flac
00e1d94ee47dc405f1b2310270dcc770 *gd81-03-20 s2 t01 Scarlet Begonias.flac
f5d09a62922af5817821953062cdaed4 *gd81-03-20 s2 t02 Fire On The Mountain.flac
5696b7c2f24bcef71119a40ad982dc5b *gd81-03-20 s2 t03 Lost Sailor.flac
2f242a5a8172d1cc5d37b17b06512c80 *gd81-03-20 s2 t04 Saint Of Circumstance.flac
d92f5531b0e95c7c60093a6a5731bf69 *gd81-03-20 s2 t05 He's Gone.flac
ac063818faa4a28789b5da4a276cf18b *gd81-03-20 s2 t06 Drums.flac
c839fa63b9bd38cbaf2c6226c2c58573 *gd81-03-20 s2 t07 Space.flac
c595610a2cdac583fec43ebf74533751 *gd81-03-20 s2 t08 Truckin'.flac
fc1082398aec54af04efca7e10e2ae82 *gd81-03-20 s2 t09 Wharf Rat.flac
325c43c2c884a881e68bc326f2f3deab *gd81-03-20 s2 t10 Around & Around.flac
1e33680b22710bdc4aff98a65718223d *gd81-03-20 s2 t11 Johnny B. Goode.flac

Comments
Add Comment
Other Sources (comments)
MAC > C > C > D > CD; via... (4) AUD > MC > C > SB!Live > CD... (0) flac16; master... (0) flac24; soundboard... (0) flac16: Soundcheck... (0) flac16; Source Info:... (0)
Date User Comment