Browse Collections Artists Sources   Search Dates

Add Show    List Management    Help


Grateful Dead 03/25/66
Trouper's Hall, Los Angeles, CA
Comments Add Comment    Source Collectors    Add to Collection    Add to Want List    History
Source # 139750 Other Sources
Entered by Matt Vernon
Checksums ffp , flac-md5
Disc Counts 0 / 0
Media Size Compressed: 217.38 MB (227938505 bytes)
Date Circulated
Date Added
11/10/2017
11/10/2017
Source Summary flac16/48kHz; Source Info: Master Soundboard 10" Reel @15ips 1/2trk > Dat (16/48); Transfer Info: Sony PCM-R500 (16/48) > Tascam DA-3000 > Adobe Audition > TLH flac1648 
  Archive
Source Information - Download Text | Download Zip
Grateful Dead
Troupers Hall
Los Angeles, CA
Friday March 25, 1966

Source Info:
Master Soundboard 10" Reel @15ips 1/2trk > Dat (16/48)

Transfer Info:
Sony PCM-R500 (16/48) > Tascam DA-3000 > Adobe Audition > TLH flac1648

Notes:
- Sources in general circulation are 16/44
- Thanks to Charlie Miller for the source Dat (16/48)
- Thanks to Charlie Miller for the transfer
- "Stealin'" cuts in, significant portion missing
- "Next Time You See Me" cuts, significant portion missing

Mastered by Scott Clugston
11/10/17

Set 1:
s1 to1. //Stealin'
s1 t02. Jam
s1 t03. Hey Little One
s1 t04. Hog For You Baby
s1 t05. You Don't Have To Ask

Set 2:
s2 t01. Cold Rain & Snow
s2 t02. Next Time You See Me//


    length     expanded size    cdr  WAVE problems  fmt   ratio  filename
     2:26.293      28088364 B   cxx   --   ---xx   flac  0.5291  gd66-03-25 s1 t01 Stealin'.flac
     9:16.573     106862124 B   cxx   --   ---xx   flac  0.6053  gd66-03-25 s1 t02 Jam.flac
     5:22.987      62013484 B   cxx   --   ---xx   flac  0.5622  gd66-03-25 s1 t03 Hey Little One.flac
     3:13.213      37097004 B   cxx   --   ---xx   flac  0.5692  gd66-03-25 s1 t04 Hog For You Baby.flac
     6:42.413      77263404 B   cxx   --   ---xx   flac  0.6179  gd66-03-25 s1 t05 You Don't Have To Ask.flac
     4:03.973      46842924 B   cxx   --   ---xx   flac  0.5522  gd66-03-25 s2 t01 Cold Rain & Snow.flac
     2:48.996      32447304 B   cxx   --   ---xx   flac  0.5796  gd66-03-25 s2 t02 Next Time You See Me.flac
    33:54.449     390614608 B                            0.5835  (7 files)

No errors occured.


Show Checksums
ffp
gd66-03-25 s1 t01 Stealin'.flac:b951c21f4b09ed238fb79c75798149ad
gd66-03-25 s1 t02 Jam.flac:ca83067a40034e7f1d9ade1f5563e9c0
gd66-03-25 s1 t03 Hey Little One.flac:ac56d69bca712cc9ef859d3028b58b0b
gd66-03-25 s1 t04 Hog For You Baby.flac:6b0becdfc25479bcf437f4449d4a7a79
gd66-03-25 s1 t05 You Don't Have To Ask.flac:c733c3394b59868e602724a8dc122313
gd66-03-25 s2 t01 Cold Rain & Snow.flac:36825930880fe03c5ee693d2656faba6
gd66-03-25 s2 t02 Next Time You See Me.flac:4e6255f470a46aad0dfe2d76b71a5588
flac-md5
683e8953ca5621a10d21734c04ba9fcf *gd66-03-25 s1 t01 Stealin'.flac
5cc7577ccca8bddd58b9b8c076ab4b91 *gd66-03-25 s1 t02 Jam.flac
07c8388fba536deb4aad3860ee343565 *gd66-03-25 s1 t03 Hey Little One.flac
e6d3c0674335e5dcd79f4637774462b9 *gd66-03-25 s1 t04 Hog For You Baby.flac
e33e91293e4b3ca92089e79a45a1e5c2 *gd66-03-25 s1 t05 You Don't Have To Ask.flac
6bc0be2382ee9e7c704d5bf88f3b076d *gd66-03-25 s2 t01 Cold Rain & Snow.flac
565cb826844fb4121fbe3b772d8364ea *gd66-03-25 s2 t02 Next Time You See Me.flac

Comments
Add Comment
Other Sources (comments)
with 7/3/66; see notes in... (3)
Date User Comment