Browse Collections Artists Sources   Search Dates

Add Show    List Management    Help


Grateful Dead 04/30/81
Greensboro Coliseum, Greensboro, NC
Comments Add Comment    Source Collectors    Add to Collection    Add to Want List    History
Source # 139758 Other Sources
Entered by Matt Vernon
Checksums ffp , flac-md5
Disc Counts 0 / 0
Media Size
Date Circulated
Date Added
11/11/2017
11/11/2017
Source Summary flac16; Source Info: Frank Streeter's Master FOB Audience Cassette; Beyer M160 > Sony TC-D5M (TDK MA90); Transfer Info: Cassette Master (Nakamichi CR-7A) > Tascam DA-3000 (DSF 1-bit/5.8 MHz)> KORG AudioGate 4 > Adobe Audition 3.0> TLH flac2496 
  Archive
Source Information - Download Text | Download Zip
Grateful Dead
Greensboro Coliseum
Greensboro, NC
Thursday April 30, 1981

This is a 16/44 filset. 24 bit to 16 bit via dBpoweramp

Source Info:
Frank Streeter's Master FOB Audience Cassette; Beyer M160 > Sony TC-D5M (TDK MA90)

Transfer Info:
Cassette Master (Nakamichi CR-7A) > Tascam DA-3000 (DSF 1-bit/5.8 MHz)> KORG AudioGate 4 > Adobe Audition 3.0> TLH flac2496

Notes:
- Thanks to Frank Streeter for the master recording
- Thanks to Charlie Miller for the transfer
- Thanks to the folks responsible for the shnid5057 nak700 source which provides from 6:00 thru 6:21 of "Eyes Of The World", as well as the first 8:48 of "Drums"
- Transitions smoothed
- Bob intros "Casey Jones"
- Nice upgrade to what is in general circulation
- 2nd Set is seemless

Transfer by Charlie Miller
Mastered by Scott Clugston
11/10/17

Set One:
s1 t01. Tuning
s1 t02. Jack Straw
s1 t03. Peggy-O >
s1 t04. C.C. Rider
s1 t05. Alabama Getaway >
s1 t06. Greatest Story Ever Told
s1 t07. Loser
s1 t08. Looks Like Rain
s1 t09. China Cat Sunflower >
s1 t10. Know You Rider

Set Two:
s2 t01. Shakedown Street >
s2 t02. Samson & Delilah
s2 t03. It Must Have Been the Roses
s2 t04. Estimated Prophet >
s2 t05. Eyes of the World >
s2 t06. Drums >
s2 t07. Space >
s2 t08. Truckin' >
s2 t09. Black Peter >
s2 t10. Around & Around >
s2 t11. Johnny B. Goode
Encore:
s2 t12. Casey Jones


    length     expanded size    cdr  WAVE problems  fmt   ratio  filename
     3:38.04       38464652 B   ---   --   ---xx   flac  0.6005  gd81-04-30 s1 t01 Crowd.flac
     6:11.71       65611436 B   ---   --   ---xx   flac  0.6609  gd81-04-30 s1 t02 Jack Straw.flac
     6:43.07       71105708 B   ---   --   ---xx   flac  0.6338  gd81-04-30 s1 t03 Peggy O.flac
     8:59.70       95244284 B   ---   --   ---xx   flac  0.6646  gd81-04-30 s1 t04 CC Rider.flac
     4:57.66       52546076 B   ---   --   ---xx   flac  0.6694  gd81-04-30 s1 t05 Alabama Getaway.flac
     5:03.03       53456300 B   ---   --   ---xx   flac  0.6525  gd81-04-30 s1 t06 Greatest Story Ever Told.flac
     7:11.19       76073132 B   ---   --   ---xx   flac  0.6328  gd81-04-30 s1 t07 Loser.flac
     8:35.56       90977756 B   ---   --   ---xx   flac  0.6374  gd81-04-30 s1 t08 Looks Like Rain.flac
     6:23.68       67721180 B   ---   --   ---xx   flac  0.6588  gd81-04-30 s1 t09 China Cat Sunflower.flac
     5:42.60       60469964 B   ---   --   ---xx   flac  0.6690  gd81-04-30 s1 t10 I Know You Rider.flac
    12:42.66      134572076 B   ---   --   ---xx   flac  0.6424  gd81-04-30 s2 t01 Shakedown Street.flac
     8:35.03       90853100 B   ---   --   ---xx   flac  0.6568  gd81-04-30 s2 t02 Samson & Delilah.flac
     7:03.15       74652524 B   ---   --   ---xx   flac  0.6178  gd81-04-30 s2 t03 It Must Have Been The Roses.flac
    11:34.38      122511020 B   ---   --   ---xx   flac  0.6425  gd81-04-30 s2 t04 Estimated Prophet.flac
     7:44.40       81943724 B   ---   --   ---xx   flac  0.6515  gd81-04-30 s2 t05 Eyes Of The World.flac
     8:52.00       93844844 B   ---   --   ---xx   flac  0.5497  gd81-04-30 s2 t06 Drums.flac
     3:26.54       36465452 B   ---   --   ---xx   flac  0.5731  gd81-04-30 s2 t07 Space.flac
     8:08.25       86142044 B   ---   --   ---xx   flac  0.6567  gd81-04-30 s2 t08 Truckin'.flac
     9:31.23      100778540 B   ---   --   ---xx   flac  0.6100  gd81-04-30 s2 t09 Black Peter.flac
     3:51.20       40795484 B   ---   --   ---xx   flac  0.6528  gd81-04-30 s2 t10 Around & Around.flac
     4:22.68       46376780 B   ---   --   ---xx   flac  0.6610  gd81-04-30 s2 t11 Johnny B. Goode.flac
     5:54.05       62457404 B   ---   --   ---xx   flac  0.6482  gd81-04-30 s2 t12 Casey Jones.flac
   155:14.31     1643063480 B                            0.6383  (22 files)

No errors occured.


Show Checksums
ffp
gd81-04-30 s1 t01 Crowd.flac:4970357cb7a12939fcefe825b8991070
gd81-04-30 s1 t02 Jack Straw.flac:85a1eaed743f83843778375b1e267066
gd81-04-30 s1 t03 Peggy O.flac:664c4e8e677b7f374a89c28997de7285
gd81-04-30 s1 t04 CC Rider.flac:8df9de96c76e98d204100cffade0caaf
gd81-04-30 s1 t05 Alabama Getaway.flac:72c0977e81ce7c2c5a256383fcdbe074
gd81-04-30 s1 t06 Greatest Story Ever Told.flac:cc24a31d466b004e72dd4e449654518a
gd81-04-30 s1 t07 Loser.flac:8c4f6c0fb8f3b746c977675ac4dcccfb
gd81-04-30 s1 t08 Looks Like Rain.flac:15a50b248dfdb23ef9b4492f0fa95dca
gd81-04-30 s1 t09 China Cat Sunflower.flac:f3cce5427d2ee04cd33dad9c0775bfb8
gd81-04-30 s1 t10 I Know You Rider.flac:414079a78b1b6f4f728dc79b015f1862
gd81-04-30 s2 t01 Shakedown Street.flac:dd008b50e4bfb8be3243b99ee944f839
gd81-04-30 s2 t02 Samson & Delilah.flac:ff491596fa915dda039cf3c4beb368c3
gd81-04-30 s2 t03 It Must Have Been The Roses.flac:a76ce4c717b58ece621f40fe1562be54
gd81-04-30 s2 t04 Estimated Prophet.flac:3ee533df2ead2edf4640daabd8321b93
gd81-04-30 s2 t05 Eyes Of The World.flac:8d5e8550168306d329a57e147f04bae6
gd81-04-30 s2 t06 Drums.flac:66b1e731e2b699e6f061b8b9095b732d
gd81-04-30 s2 t07 Space.flac:1eb2d9a8f032b2571db715eb98a53203
gd81-04-30 s2 t08 Truckin'.flac:48d95f9ac69b468b17f8b9a145c813ee
gd81-04-30 s2 t09 Black Peter.flac:793fc58865acc269b167c7823024d3db
gd81-04-30 s2 t10 Around & Around.flac:b3a62ebe639adc1662998a9ea081bce9
gd81-04-30 s2 t11 Johnny B. Goode.flac:39b47c056bf3db23f8ea6816a944ca43
gd81-04-30 s2 t12 Casey Jones.flac:d8ecaf60d79f818b87015bc1e4c57013
flac-md5
13c13e8b876280dbf9ed96e4721510b0 *gd81-04-30 s1 t01 Crowd.flac
1058fcf8c2790200d5d3d4d778ae7530 *gd81-04-30 s1 t02 Jack Straw.flac
f3089151c88f4e9d385f59469751c266 *gd81-04-30 s1 t03 Peggy O.flac
6fdc6a587afd33070fd5248a0c8903a8 *gd81-04-30 s1 t04 CC Rider.flac
9909d4488fc8f8a001623a133d885d5f *gd81-04-30 s1 t05 Alabama Getaway.flac
20d222ba90a2d98b7e5929241d8a2491 *gd81-04-30 s1 t06 Greatest Story Ever Told.flac
a5e9065a96d82b7886a0cc82b9ad4901 *gd81-04-30 s1 t07 Loser.flac
43bf65db682167e96e502e3e5aa206f3 *gd81-04-30 s1 t08 Looks Like Rain.flac
0645567af90f791a12412feb248e5728 *gd81-04-30 s1 t09 China Cat Sunflower.flac
216bc7804bf7d86bd2b8d03f304bcc51 *gd81-04-30 s1 t10 I Know You Rider.flac
95d0537cd5096d40339449335b6c889c *gd81-04-30 s2 t01 Shakedown Street.flac
110b458ab967adf658b94ac2ed343d77 *gd81-04-30 s2 t02 Samson & Delilah.flac
348d18056e992b7aad69e908c2373e31 *gd81-04-30 s2 t03 It Must Have Been The Roses.flac
0052fbc4ff242581ceefc85724ab1aa6 *gd81-04-30 s2 t04 Estimated Prophet.flac
2a49ba6c85423edc99c54734a83a1ef8 *gd81-04-30 s2 t05 Eyes Of The World.flac
6d851cb97bd6ce132ef936cb9c6d0451 *gd81-04-30 s2 t06 Drums.flac
534a1969355e65d8d742677d4bee73fd *gd81-04-30 s2 t07 Space.flac
36f2e9aec8c1d636983c735160cef9f3 *gd81-04-30 s2 t08 Truckin'.flac
b75e24c8e8b54c932aa4951c5c6cda4b *gd81-04-30 s2 t09 Black Peter.flac
178201bed1489efcdcd0617580374359 *gd81-04-30 s2 t10 Around & Around.flac
11b70c4047caf07353b5989dedc6b3df *gd81-04-30 s2 t11 Johnny B. Goode.flac
d457bb51964a04771c13107c79fabc5e *gd81-04-30 s2 t12 Casey Jones.flac

Comments
Add Comment
Other Sources (comments)
Recording by Jim Wise:... (0) flac16; Recording... (1) flac24; Cassette... (0) flac24; Source Info:... (0)
Date User Comment