Browse Collections Artists Sources   Search Dates

Add Show    List Management    Help


Grateful Dead 04/30/81
Greensboro Coliseum, Greensboro, NC
Comments Add Comment    Source Collectors    Add to Collection    Add to Want List    History
Source # 139759 Other Sources
Entered by Matt Vernon
Checksums ffp , flac-md5
Disc Counts 0 / 0
Media Size
Date Circulated
Date Added
11/11/2017
11/11/2017
Source Summary flac24; Source Info: Frank Streeter's Master FOB Audience Cassette; Beyer M160 > Sony TC-D5M (TDK MA90); Transfer Info: Cassette Master (Nakamichi CR-7A) > Tascam DA-3000 (DSF 1-bit/5.8 MHz)> KORG AudioGate 4 > Adobe Audition 3.0> TLH flac2496 
  Archive
Source Information - Download Text | Download Zip
Grateful Dead
Greensboro Coliseum
Greensboro, NC
Thursday April 30, 1981

Source Info:
Frank Streeter's Master FOB Audience Cassette; Beyer M160 > Sony TC-D5M (TDK MA90)

Transfer Info:
Cassette Master (Nakamichi CR-7A) > Tascam DA-3000 (DSF 1-bit/5.8 MHz)> KORG AudioGate 4 > Adobe Audition 3.0> TLH flac2496

Notes:
- Thanks to Frank Streeter for the master recording
- Thanks to Charlie Miller for the transfer
- Thanks to the folks responsible for the shnid5057 nak700 source which provides from 6:00 thru 6:21 of "Eyes Of The World", as well as the first 8:48 of "Drums"
- Transitions smoothed
- Bob intros "Casey Jones"
- Nice upgrade to what is in general circulation
- 2nd Set is seemless

Transfer by Charlie Miller
Mastered by Scott Clugston
11/10/17

Set One:
s1 t01. Tuning
s1 t02. Jack Straw
s1 t03. Peggy-O >
s1 t04. C.C. Rider
s1 t05. Alabama Getaway >
s1 t06. Greatest Story Ever Told
s1 t07. Loser
s1 t08. Looks Like Rain
s1 t09. China Cat Sunflower >
s1 t10. Know You Rider

Set Two:
s2 t01. Shakedown Street >
s2 t02. Samson & Delilah
s2 t03. It Must Have Been the Roses
s2 t04. Estimated Prophet >
s2 t05. Eyes of the World >
s2 t06. Drums >
s2 t07. Space >
s2 t08. Truckin' >
s2 t09. Black Peter >
s2 t10. Around & Around >
s2 t11. Johnny B. Goode
Encore:
s2 t12. Casey Jones


    length     expanded size    cdr  WAVE problems  fmt   ratio  filename
     3:38.053     125598764 B   cxx   --   ---xx   flac  0.6738  gd81-04-30 s1 t01 Crowd.flac
     6:11.947     214241324 B   cxx   --   ---xx   flac  0.7035  gd81-04-30 s1 t02 Jack Straw.flac
     6:43.093     232181804 B   cxx   --   ---xx   flac  0.6941  gd81-04-30 s1 t03 Peggy O.flac
     8:59.933     311001644 B   cxx   --   ---xx   flac  0.7046  gd81-04-30 s1 t04 CC Rider.flac
     4:57.880     171578924 B   cxx   --   ---xx   flac  0.7017  gd81-04-30 s1 t05 Alabama Getaway.flac
     5:03.040     174551084 B   cxx   --   ---xx   flac  0.6958  gd81-04-30 s1 t06 Greatest Story Ever Told.flac
     7:11.253     248401964 B   cxx   --   ---xx   flac  0.6886  gd81-04-30 s1 t07 Loser.flac
     8:35.747     297070124 B   cxx   --   ---xx   flac  0.6902  gd81-04-30 s1 t08 Looks Like Rain.flac
     6:23.907     221130284 B   cxx   --   ---xx   flac  0.6970  gd81-04-30 s1 t09 China Cat Sunflower.flac
     5:42.805     197455700 B   cxx   --   ---xx   flac  0.7012  gd81-04-30 s1 t10 I Know You Rider.flac
    12:42.880     439418924 B   cxx   --   ---xx   flac  0.6911  gd81-04-30 s2 t01 Shakedown Street.flac
     8:35.040     296663084 B   cxx   --   ---xx   flac  0.6969  gd81-04-30 s2 t02 Samson & Delilah.flac
     7:03.200     243763244 B   cxx   --   ---xx   flac  0.6837  gd81-04-30 s2 t03 It Must Have Been The Roses.flac
    11:34.507     400035884 B   cxx   --   ---xx   flac  0.6914  gd81-04-30 s2 t04 Estimated Prophet.flac
     7:44.533     267571244 B   cxx   --   ---xx   flac  0.6901  gd81-04-30 s2 t05 Eyes Of The World.flac
     8:52.000     306432044 B   cxx   --   ---xx   flac  0.5730  gd81-04-30 s2 t06 Drums.flac
     3:26.720     119070764 B   cxx   --   ---xx   flac  0.6694  gd81-04-30 s2 t07 Space.flac
     8:08.333     281280044 B   cxx   --   ---xx   flac  0.6967  gd81-04-30 s2 t08 Truckin'.flac
     9:31.307     329072684 B   cxx   --   ---xx   flac  0.6808  gd81-04-30 s2 t09 Black Peter.flac
     3:51.267     133209644 B   cxx   --   ---xx   flac  0.6956  gd81-04-30 s2 t10 Around & Around.flac
     4:22.907     151434284 B   cxx   --   ---xx   flac  0.6991  gd81-04-30 s2 t11 Johnny B. Goode.flac
     5:54.061     203938910 B   cxx   --   ---xx   flac  0.6916  gd81-04-30 s2 t12 Casey Jones.flac
   155:14.412    5365102370 B                            0.6858  (22 files)

No errors occured.


Show Checksums
ffp
gd81-04-30 s1 t01 Crowd.flac:b39c53e1558384ea8793dcba8de3e982
gd81-04-30 s1 t02 Jack Straw.flac:90f6178f9a5985b5aa29b9aa622cd417
gd81-04-30 s1 t03 Peggy O.flac:a510568436600f3489859a666e08beec
gd81-04-30 s1 t04 CC Rider.flac:0a20ba1994050c7eb0dd981f00d33b37
gd81-04-30 s1 t05 Alabama Getaway.flac:7eb7f06de702597475ce5207148716d2
gd81-04-30 s1 t06 Greatest Story Ever Told.flac:ddc512d9434812f6fbcc0af16f667a96
gd81-04-30 s1 t07 Loser.flac:87d6a8799978a92c56afbd1015b59594
gd81-04-30 s1 t08 Looks Like Rain.flac:f82e0ee2e5536a659ed73c1dd30268f5
gd81-04-30 s1 t09 China Cat Sunflower.flac:b8f5de28ed51b9d2fc3094fecff1acd1
gd81-04-30 s1 t10 I Know You Rider.flac:6385f59b37afd6e7821e4e49894e7460
gd81-04-30 s2 t01 Shakedown Street.flac:2f1314085e8ae828b89ea6b31ae95829
gd81-04-30 s2 t02 Samson & Delilah.flac:6bf4ea9ba046da2106ebbdef4f5f7863
gd81-04-30 s2 t03 It Must Have Been The Roses.flac:0438b4ac2031eda5cb661685170d9126
gd81-04-30 s2 t04 Estimated Prophet.flac:3683c810173c5da6961540935a3be0e8
gd81-04-30 s2 t05 Eyes Of The World.flac:c7bf20f2fbf23732b65025c24370300a
gd81-04-30 s2 t06 Drums.flac:2c410d7b33420f399a192b0472271e01
gd81-04-30 s2 t07 Space.flac:d13d6fc40632d0339438cc82cb5cd487
gd81-04-30 s2 t08 Truckin'.flac:5052564b88bfd0cce6a501bee6ddfcd7
gd81-04-30 s2 t09 Black Peter.flac:b1dffe8399a72094969fab1f37593bb4
gd81-04-30 s2 t10 Around & Around.flac:fbb922b9a33af5bf27c36753ca886ef5
gd81-04-30 s2 t11 Johnny B. Goode.flac:603eb4033254f89a9e7e784721561f2e
gd81-04-30 s2 t12 Casey Jones.flac:52f4edf7534750d1130444766ee87e26
flac-md5
d9cb1f12eaa9d2476148e4051ce79eba *gd81-04-30 s1 t01 Crowd.flac
202d1eda1f21ab4ab9c70a54acdcbdf1 *gd81-04-30 s1 t02 Jack Straw.flac
349801c3b16a1a5b24aadaf10773a480 *gd81-04-30 s1 t03 Peggy O.flac
21337e2c944686b06a9d28b204d2a500 *gd81-04-30 s1 t04 CC Rider.flac
aab215e5e6aa5a67620ac0e75743ed51 *gd81-04-30 s1 t05 Alabama Getaway.flac
51a89a05e3ba831531d2ec4967d70c74 *gd81-04-30 s1 t06 Greatest Story Ever Told.flac
d658abf61ce91f3716d71fdbdeb144fb *gd81-04-30 s1 t07 Loser.flac
747f7ae7352470455d0c8cbc1ec5f4d9 *gd81-04-30 s1 t08 Looks Like Rain.flac
aec29f00cb06f4f4b838e29d07a19a77 *gd81-04-30 s1 t09 China Cat Sunflower.flac
3f27eda5122c99bbc0e3898b074bab40 *gd81-04-30 s1 t10 I Know You Rider.flac
8fbbea688557877ebd417c92ad2b2c0a *gd81-04-30 s2 t01 Shakedown Street.flac
82b4989dbf4b2f28a1d9b7e0b49cb30b *gd81-04-30 s2 t02 Samson & Delilah.flac
e7398c92ecf2a02e5d16d8d59b386932 *gd81-04-30 s2 t03 It Must Have Been The Roses.flac
99c2f21a538675d98a8f29cc93ab6809 *gd81-04-30 s2 t04 Estimated Prophet.flac
4c0eeab8a2f9dff3dc44ef82f2e7cc88 *gd81-04-30 s2 t05 Eyes Of The World.flac
d9c011125e8e20ec748909e05fd35eb4 *gd81-04-30 s2 t06 Drums.flac
158acddcde30349eed2cd83e73696a77 *gd81-04-30 s2 t07 Space.flac
ab5ce6268b9570066a14a12d2abdc750 *gd81-04-30 s2 t08 Truckin'.flac
1ee9850f3458043349dcb432cc416bd9 *gd81-04-30 s2 t09 Black Peter.flac
7a4afb3d24f82a63da1fd9153c0c4684 *gd81-04-30 s2 t10 Around & Around.flac
e4c82b7cdcf8b885f1d249c460f4492b *gd81-04-30 s2 t11 Johnny B. Goode.flac
db6d4ab4bf9681ceb2c27f4d77d0e372 *gd81-04-30 s2 t12 Casey Jones.flac

Comments
Add Comment
Other Sources (comments)
Recording by Jim Wise:... (0) flac16; Recording... (1) flac24; Cassette... (0) flac16; Source Info:... (0)
Date User Comment