Browse Collections Artists Sources   Search Dates

Add Show    List Management    Help


Grateful Dead 02/10/89
Great Western LA Forum, Inglewood, CA
Comments Add Comment    Source Collectors    Add to Collection    Add to Want List    History
Source # 139760 Other Sources
Entered by Matt Vernon
Checksums ffp , flac-md5
Disc Counts 0 / 0
Media Size
Date Circulated
Date Added
11/11/2017
11/11/2017
Source Summary flac16; Source Info: (FOB) Audience PCM; Schoeps CMC4/MK4 > Sony PCM-F1 > Dat (16/44); Transfer Info: Sony PCM-R500 > Tascam DA-3000 > Adobe Audition 3.0 > TLH flac16 
  Archive
Source Information - Download Text | Download Zip
Grateful Dead
Great Western Forum
Inglewood, CA
Friday February 10, 1989

Source Info:
(FOB) Audience PCM; Schoeps CMC4/MK4 > Sony PCM-F1 > Dat (16/44)

Transfer Info:
Sony PCM-R500 > Tascam DA-3000 > Adobe Audition 3.0 > TLH flac16

Notes:
- Recorded by Robert Bryant (patched out of the Oade brothers)
- Thanks to Rich Gastwirt for the source Dat
- Thanks to Charlie Miller for the transfer
- There were several drop-outs and garbled spots which were patched. I think I got them all
- Thanks to the folks responsible for the shnid77647 sennheiser mke2002 source which provides the first 1:04 of "Feel Like A Stranger", from 3:47 thru 3:51 of "Walkin' Blues", from 4:06 thru 4:19 and 4:26 thru 4:32 of "Friend Of The Devil", as well as from 7:36 thru 7:41 of "Let It Grow"
- "Just A Little Light" without Bob

Transfer by Charlie Miller
Mastered by Scott Clugston
11/10/17

Set 1:
s1 t01. Feel Like A Stranger ->
s1 t02. Franklin's Tower ->
s1 t03. Walking Blues
s1 t04. To Lay Me Down
s1 t05. When I Paint My Masterpiece
s1 t06. Friend of the Devil
s1 t07. Let It Grow

Set 2:
s2 t01. Crowd/tuning
s2 t02. Just A Little Light
s2 t03. Truckin ->
s2 t04. Crazy Fingers ->
s2 t05. Playing in the Band ->
s2 t06. Drums ->
s2 t07. Space ->
s2 t08. The Wheel ->
s2 t09. Gimme Some Lovin' ->
s2 t10. Wharf Rat ->
s2 t11. Sugar Magnolia
s2 t12. Encore Break
s2 t13. It's All Over Now, Baby Blue



    length     expanded size    cdr  WAVE problems  fmt   ratio  filename
     7:36.63       80586620 B   ---   --   ---xx   flac  0.5921  gd89-02-10 s1 t01 Feel Like A Stranger.flac
     9:38.10      101982764 B   ---   --   ---xx   flac  0.5977  gd89-02-10 s1 t02 Franklin's Tower.flac
     7:20.47       77726588 B   ---   --   ---xx   flac  0.5718  gd89-02-10 s1 t03 Walkin' Blues.flac
     9:58.16      105524876 B   ---   --   ---xx   flac  0.5090  gd89-02-10 s1 t04 To Lay Me Down.flac
     6:05.47       64496588 B   ---   --   ---xx   flac  0.5695  gd89-02-10 s1 t05 When I Paint My Masterpiece.flac
     8:13.71       87132236 B   ---   --   ---xx   flac  0.5753  gd89-02-10 s1 t06 Friend Of The Devil.flac
    12:04.21      127763036 B   ---   --   ---xx   flac  0.5985  gd89-02-10 s1 t07 Let It Grow.flac
     2:00.72       21337388 B   ---   --   ---xx   flac  0.4412  gd89-02-10 s2 t01 Crowd_Tuning.flac
     8:38.07       91391708 B   ---   --   ---xx   flac  0.5144  gd89-02-10 s2 t02 Just A Little Light.flac
     8:03.49       85316492 B   ---   --   ---xx   flac  0.6078  gd89-02-10 s2 t03 Truckin'.flac
     8:30.25       90022844 B   ---   --   ---xx   flac  0.5260  gd89-02-10 s2 t04 Crazy Fingers.flac
    14:41.29      155476652 B   ---   --   ---xx   flac  0.5389  gd89-02-10 s2 t05 Playing In The Band.flac
     7:25.39       78589772 B   ---   --   ---xx   flac  0.4362  gd89-02-10 s2 t06 Drums.flac
     8:13.61       87108716 B   ---   --   ---xx   flac  0.3500  gd89-02-10 s2 t07 Space.flac
     5:36.38       59359820 B   ---   --   ---xx   flac  0.5336  gd89-02-10 s2 t08 The Wheel.flac
     4:50.67       51313628 B   ---   --   ---xx   flac  0.5907  gd89-02-10 s2 t09 Gimme Some Lovin'.flac
    10:24.11      110099516 B   ---   --   ---xx   flac  0.5421  gd89-02-10 s2 t10 Wharf Rat.flac
     9:07.22       96542588 B   ---   --   ---xx   flac  0.5881  gd89-02-10 s2 t11 Sugar Magnolia.flac
     2:39.51       28167596 B   ---   --   ---xx   flac  0.4871  gd89-02-10 s2 t12 Encore Break.flac
     8:31.13       90171020 B   ---   --   ---xx   flac  0.5362  gd89-02-10 s2 t13 It's All Over Now, Baby Blue.flac
   159:41.09     1690110448 B                            0.5413  (20 files)

No errors occured.



Show Checksums
ffp
gd89-02-10 s1 t01 Feel Like A Stranger.flac:2a4b5cd7b8adc1638335b88f19f56593
gd89-02-10 s1 t02 Franklin's Tower.flac:4a18a0428888b7b4ea41697f392245f8
gd89-02-10 s1 t03 Walkin' Blues.flac:dcda6c74cee0a6700802ec9105d58376
gd89-02-10 s1 t04 To Lay Me Down.flac:65ade92eb24119e033626e6b76d3fe6c
gd89-02-10 s1 t05 When I Paint My Masterpiece.flac:15670980b677e5a35b47088b0d06aa33
gd89-02-10 s1 t06 Friend Of The Devil.flac:649d6ccf11aa69eee7a27b87da0e149f
gd89-02-10 s1 t07 Let It Grow.flac:e96e57cdb2f32236a5bae30e8d146f19
gd89-02-10 s2 t01 Crowd_Tuning.flac:b02caf70c28161dfca261bfff277186f
gd89-02-10 s2 t02 Just A Little Light.flac:71c901f22871672792e08ef4bf6e40f2
gd89-02-10 s2 t03 Truckin'.flac:a4ca95f58c088bf311aedfb6b68a1e28
gd89-02-10 s2 t04 Crazy Fingers.flac:f6677e8bce2d67e3d70f29dc62f10995
gd89-02-10 s2 t05 Playing In The Band.flac:6224f210d55a7e8d24eb3607d350132b
gd89-02-10 s2 t06 Drums.flac:c448e32f505a61459c3f7306e479f526
gd89-02-10 s2 t07 Space.flac:453dc36d85c7f17ae8dc2628b514575b
gd89-02-10 s2 t08 The Wheel.flac:8cb6743ca37e885086e47de19d7d6086
gd89-02-10 s2 t09 Gimme Some Lovin'.flac:9e86cb055b772ca7119c003c74de716f
gd89-02-10 s2 t10 Wharf Rat.flac:1350158c797d0e5246e1a294a0355e15
gd89-02-10 s2 t11 Sugar Magnolia.flac:ed48a11414bdf1fd795fd7e19d0cd6d2
gd89-02-10 s2 t12 Encore Break.flac:71d9f6f1c76730ce94128fc2669f31a2
gd89-02-10 s2 t13 It's All Over Now, Baby Blue.flac:71fe8ffe610f72e2d9c6eb94cea5a9dd
flac-md5
42fd08d86c4bc369db45a0562cbfa208 *gd89-02-10 s1 t01 Feel Like A Stranger.flac
d49e7f3627d8dbc18bb5c18659dacd82 *gd89-02-10 s1 t02 Franklin's Tower.flac
b6bf4bf1d07f9c855db6d3abbae56322 *gd89-02-10 s1 t03 Walkin' Blues.flac
d2a17ea7bf855746169056a373fa51f6 *gd89-02-10 s1 t04 To Lay Me Down.flac
0ed6d0a8801741cfb837be91f7f735f4 *gd89-02-10 s1 t05 When I Paint My Masterpiece.flac
9d097e77eff150be0b15ee90daebe398 *gd89-02-10 s1 t06 Friend Of The Devil.flac
7f78d7688c0fa2b35bc870f7e1d97413 *gd89-02-10 s1 t07 Let It Grow.flac
3b7db8b83de155732787fc07689cf730 *gd89-02-10 s2 t01 Crowd_Tuning.flac
29e7845e2694d482492c693eb5c5c201 *gd89-02-10 s2 t02 Just A Little Light.flac
ce3f307f472b6e656c61c4295ff427bf *gd89-02-10 s2 t03 Truckin'.flac
0adc355238f100b4d9a313badd5330b9 *gd89-02-10 s2 t04 Crazy Fingers.flac
aa01be30ed0ee7df0b48495615bbd6c5 *gd89-02-10 s2 t05 Playing In The Band.flac
45a1aec3c3d7418e0ca842429d303c49 *gd89-02-10 s2 t06 Drums.flac
2ac45b767cfe314ef1355468bd486c7f *gd89-02-10 s2 t07 Space.flac
98777e7384749457fa71df7cfde80181 *gd89-02-10 s2 t08 The Wheel.flac
e3e5d80acfbcfea76fbc752979ee77af *gd89-02-10 s2 t09 Gimme Some Lovin'.flac
c5cbb65c41551deac1db5b92ad94360b *gd89-02-10 s2 t10 Wharf Rat.flac
4d33a9f377a3beeab4675ae02e40b8dd *gd89-02-10 s2 t11 Sugar Magnolia.flac
28b493f52511fee0186a57bcdb0a56c9 *gd89-02-10 s2 t12 Encore Break.flac
98596ef815507db0b10ec146f463ed9b *gd89-02-10 s2 t13 It's All Over Now, Baby Blue.flac

Comments
Add Comment
Other Sources (comments)
Source: Master Cassette... (0) flac16; Seamless fix... (1) flac24/96; Senn... (1) flac16; Senn MKE2002... (0) flac24/48; Senn... (0) flac16; AT835B's- AT... (0) flac24; Recording... (0) flac16; Recording... (1) flac16; Recording... (0)
Date User Comment