Browse Collections Artists Sources   Search Dates

Add Show    List Management    Help


Grateful Dead 12/30/81
Oakland Auditorium Arena, Oakland, CA
Comments Add Comment    Source Collectors    Add to Collection    Add to Want List    History
Source # 139771 Other Sources
Entered by Matt Vernon
Checksums flac-md5 , ffp
Disc Counts 0 / 0
Media Size Compressed: 510.73 MB (535535616 bytes)
Uncompressed: 810.31 MB (849670024 bytes)
Date Circulated
Date Added
11/11/2017
11/11/2017
Source Summary flac16; Set 1 + Set 2 Partial; AUD: Nakamichi CM300/CP4 shotguns > Sony TC-D5M > TDK MA-90. Recording by Brian Schley. Transfer: MAC > Nakamichi CR-5A > Edirol FA-66 > Wavelab 2448 > R8Brain SRC > CD-Wave > TLH > FLAC 1644 tagged. Transferred by Andrew F. 11/2017 
  Archive
Source Information - Download Text | Download Zip
GRATEFUL DEAD
Auditorium Arena
Oakland CA
12-30-1981
(Tape #1 only)

s1t01 Jack Straw
s1t02 They Love Each Other
s1t03 On the Road Again
s1t04 Dire Wolf >
s1t05 Little Red Rooster
s1t06 Cumberland Blues
s1t07 It's All Over Now
s1t08 Althea
s1t09 Lazy Lightnin' >
s1t10 Supplication
s1t11 Might as Well

s2t01 Me & Bobby McGee*
s2t02 Lady Di and I*
s2t03 Barbara Allen*
*GD backing Joan Baez at start of 2nd Set

AUD: Nakamichi CM300/CP4 shotguns > Sony TC-D5M > TDK MA-90.
Recording by Brian Schley.

Transfer: MAC > Nakamichi CR-5A > Edirol FA-66 > Wavelab 2448 >
R8Brain SRC > CD-Wave > TLH > FLAC 1644 tagged. Transferred by
Andrew F. 11/2017

Note: The solo Joan Baez part before Bobby McGee was not recorded
on the MAC. Sadly, MAC #2 (Stranger thru encore) was taped over :(
Thanks Jon Pasternak & Charlie McGuth for organizing this project!

    length     expanded size    cdr  WAVE problems  fmt   ratio  filename
     5:22.10       56824364 B   ---   --   ---xx   flac  0.6306  gd1981-12-30s1t01.flac
     7:28.63       79175420 B   ---   --   ---xx   flac  0.6143  gd1981-12-30s1t02.flac
     3:54.65       41430524 B   ---   --   ---xx   flac  0.6325  gd1981-12-30s1t03.flac
     3:19.16       35141276 B   ---   --   ---xx   flac  0.6331  gd1981-12-30s1t04.flac
     8:42.05       92092604 B   ---   --   ---xx   flac  0.6206  gd1981-12-30s1t05.flac
     5:33.05       58753004 B   ---   --   ---xx   flac  0.6410  gd1981-12-30s1t06.flac
     8:12.35       86871164 B   ---   --   ---xx   flac  0.6272  gd1981-12-30s1t07.flac
     8:22.35       88635164 B   ---   --   ---xx   flac  0.6157  gd1981-12-30s1t08.flac
     3:33.38       37662620 B   ---   --   ---xx   flac  0.6337  gd1981-12-30s1t09.flac
     5:52.51       62212796 B   ---   --   ---xx   flac  0.6353  gd1981-12-30s1t10.flac
     4:34.25       48392444 B   ---   --   ---xx   flac  0.6547  gd1981-12-30s1t11.flac
     3:52.14       40957772 B   ---   --   ---xx   flac  0.6485  gd1981-12-30s2t01.flac
     5:50.55       61869404 B   ---   --   ---xx   flac  0.6267  gd1981-12-30s2t02.flac
     5:38.12       59651468 B   ---   --   ---xx   flac  0.6419  gd1981-12-30s2t03.flac
    80:16.54      849670024 B                            0.6302  (14 files)

No errors occured.



Show Checksums
flac-md5
08f2cbafe98bf13af0e135044d837499 *gd1981-12-30s1t01.flac
e099e9b5c0d8d9665cb7f4ab74236e6a *gd1981-12-30s1t02.flac
22073bb46d69736028b43c5f75e7e8a3 *gd1981-12-30s1t03.flac
1e8d4ddc28a75417796dee22bb32ede3 *gd1981-12-30s1t04.flac
293b9de2056cf538e8adb0366aef6723 *gd1981-12-30s1t05.flac
a535b0367075c0d1b714f8abc2eabb7e *gd1981-12-30s1t06.flac
f6a69144cc86ec3ddbaaf395b5fc97e0 *gd1981-12-30s1t07.flac
e6c208f5bfb94f5955fe7b35017c93ac *gd1981-12-30s1t08.flac
9a9bc725d87a963b3a2eb61c534a7bf8 *gd1981-12-30s1t09.flac
5997a446635bd64f6eeec371502049e0 *gd1981-12-30s1t10.flac
e1e68e167c7c6f20044e7824249b1e10 *gd1981-12-30s1t11.flac
76388dc47ba96d56854723dfafcfc129 *gd1981-12-30s2t01.flac
bb1c00c490484af55df4aade1a3000fc *gd1981-12-30s2t02.flac
f72d84fd40858941a7c761ae2af411f7 *gd1981-12-30s2t03.flac
ffp
gd1981-12-30s1t01.flac:0e6575b4ba5e759be6e03ed45f30ef9a
gd1981-12-30s1t02.flac:4c9b529819772f9277f97b5a86a45363
gd1981-12-30s1t03.flac:f7c889fffafa6b0be788f796b2c8b45b
gd1981-12-30s1t04.flac:35da30ae095d844d5793ec745b00a797
gd1981-12-30s1t05.flac:2274059b7677f1eab19ca149eae2324f
gd1981-12-30s1t06.flac:aca856e9b6db295bcaf82c536520e414
gd1981-12-30s1t07.flac:b963b6bec1a3a4c2cc9a45a279761709
gd1981-12-30s1t08.flac:5e389a73db64d01dc87fb87c78570fcb
gd1981-12-30s1t09.flac:156bdeb1d9546c65cb392f67a6431a95
gd1981-12-30s1t10.flac:4e3ca97a78cfea382d57e8718413ba92
gd1981-12-30s1t11.flac:9d6b654514723bb3003d988c237aaec2
gd1981-12-30s2t01.flac:920ca296fd3b8a7bf440edce30944558
gd1981-12-30s2t02.flac:bae54b57e7eef4bc6c4f969e3af98e2c
gd1981-12-30s2t03.flac:1f28d2354960545bd334df238af03c0b

Comments
Add Comment
Other Sources (comments)
1st Set SBD> MC> DAT> CD;... (0) flac16;... (0) flac16; Source:... (0) flac16; Recording... (0)
Date User Comment