Browse Collections Artists Sources   Search Dates

Add Show    List Management    Help


Grateful Dead 09/09/87
Providence Civic Center, Providence, RI
Comments Add Comment    Source Collectors    Add to Collection    Add to Want List    History
Source # 139781 Other Sources
Entered by Matt Vernon
Checksums flac-md5 , ffp
Disc Counts 0 / 0
Media Size
Date Circulated
Date Added
11/13/2017
11/13/2017
Source Summary flac16; Recording Info: UltraMatrix SBD > PCM; Transfer Info: PCM (Sony SLV-M20HF) > Sony PCM-601ESD > Behringer Ultramatch Pro > Tascam DA-3000 (16-bit/44.1k) > Samplitude Pro X3 Suite > FLAC/16; All Transfers and Matering by Charlie Miller 
  Archive
Source Information - Download Text | Download Zip
Grateful Dead - September 9, 1987
Civic Center - Providence, RI

Recording Info:
UltraMatrix SBD > PCM

Transfer Info:
PCM (Sony SLV-M20HF) > Sony PCM-601ESD > Behringer Ultramatch Pro >
Tascam DA-3000 (16-bit/44.1k) > Samplitude Pro X3 Suite > FLAC/16
(2 Discs Audio / 1 DVD FLAC)

All Transfers and Matering by Charlie Miller
[email protected]
November 11, 2017

Patch Info:
SBD > Cassette Master (shnid=106823) supplies:
Tuning thru Althea and The Mighty Quinn (Quinn The Eskimo)

Notes:
-- Playing In The Band tease before Drums
-- All Along The Watchtower tease out of The Wheel
-- Thanks to Joe B. Jones for his help with the pitch correction

Set 1:
01 - Tuning
02 - Hey Pocky Way
03 - Jack Straw ->
04 - West L.A. Fadeaway
05 - When I Paint My Masterpiece
06 - Friend of the Devil
07 - Cassidy
08 - Althea
09 - Greatest Story Ever Told ->
10 - Devil With a Blue Dress ->
11 - Good Golly Miss Molly ->
12 - Devil With a Blue Dress

Set:
13 - Tuning
14 - China Cat Sunflower >
15 - I Know You Rider >
16 - Playin' in the Band >
17 - China Doll >
18 - Drums >
19 - Space >
20 - The Wheel >
21 - Gimme Some Lovin' >
22 - Throwin' Stones >
23 - Not Fade Away

Encore:
24 - Encore Break
25 - Not Fade Away
26 - The Mighty Quinn (Quinn The Eskimo)


SHNTOOL OUTPUT:
    length     expanded size    cdr  WAVE problems  fmt   ratio  filename
     0:35.13        6204620 B   ---   --   ---xx   flac  0.4975  01 Tuning.flac
     4:52.70       51673484 B   ---   --   ---xx   flac  0.6132  02 Hey Pocky Way.flac
     6:10.46       65376236 B   ---   --   ---xx   flac  0.6305  03 Jack Straw.flac
     9:01.19       95477132 B   ---   --   ---xx   flac  0.5882  04 West LA Fadeaway.flac
     4:40.56       49523756 B   ---   --   ---xx   flac  0.6069  05 When I Paint My Masterpiece.flac
    10:04.04      106555052 B   ---   --   ---xx   flac  0.5826  06 Friend Of The Devil.flac
     6:21.23       67262540 B   ---   --   ---xx   flac  0.6161  07 Cassidy.flac
     8:49.24       93372092 B   ---   --   ---xx   flac  0.5909  08 Althea.flac
     3:51.19       40793132 B   ---   --   ---xx   flac  0.6318  09 Greatest Story Ever Told.flac
     2:10.05       22943804 B   ---   --   ---xx   flac  0.6373  10 Devil With a Blue Dress.flac
     0:45.34        8018012 B   ---   --   ---xx   flac  0.6529  11 Good Golly Miss Molly.flac
     1:37.55       17240204 B   ---   --   ---xx   flac  0.6184  12 Devil With a Blue Dress.flac
     1:25.28       15059900 B   ---   --   ---xx   flac  0.4990  13 Tuning.flac
     4:57.28       52456700 B   ---   --   ---xx   flac  0.6039  14 China Cat Sunflower.flac
     5:22.27       56864348 B   ---   --   ---xx   flac  0.6125  15 I Know You Rider.flac
     9:38.11      101985116 B   ---   --   ---xx   flac  0.5797  16 Playing In The Band.flac
     6:38.11       70233116 B   ---   --   ---xx   flac  0.5586  17 China Doll.flac
     7:10.45       75957884 B   ---   --   ---xx   flac  0.5184  18 Drums.flac
     7:18.17       77303228 B   ---   --   ---xx   flac  0.4626  19 Space.flac
     4:15.24       45038492 B   ---   --   ---xx   flac  0.5904  20 The Wheel.flac
     4:25.26       46807196 B   ---   --   ---xx   flac  0.6048  21 Gimme Some Lovin'.flac
     8:58.54       95030252 B   ---   --   ---xx   flac  0.6162  22 Throwing Stones.flac
     8:07.49       86022092 B   ---   --   ---xx   flac  0.5920  23 Not Fade Away.flac
     1:54.56       20241356 B   ---   --   ---xx   flac  0.5354  24 Encore Break.flac
     1:22.34       14544812 B   ---   --   ---xx   flac  0.5628  25 Not Fade Away.flac
     4:30.59       47766812 B   ---   --   ---xx   flac  0.6327  26 The Mighty Quinn (Quinn The Eskimo).flac
   135:05.12     1429751368 B                            0.5863  (26 files)


Show Checksums
flac-md5
744dabdb24a6132317e041dd486473f7 *01 Tuning.flac
1ddc387fae9cf28dc97444ff0ad2f4c5 *02 Hey Pocky Way.flac
b3d5d51eed894c8df02a4e25163458dd *03 Jack Straw.flac
37e54babc5c2f84453b583e95dd6f8a7 *04 West LA Fadeaway.flac
e5af9984a89a10248501189e32f180a7 *05 When I Paint My Masterpiece.flac
976792d6d88959a500cdad4e1bca1479 *06 Friend Of The Devil.flac
e4b337e1787bd93723218026209aabce *07 Cassidy.flac
bb3a3ab693ecae1670aa852680ced5a6 *08 Althea.flac
5ecd09d6ba07e231fb310004e0ba1f32 *09 Greatest Story Ever Told.flac
af80e133011361d75168ef06a88af031 *10 Devil With a Blue Dress.flac
25fea6c9aa207eb1b0db822e9dfcdb68 *11 Good Golly Miss Molly.flac
1424462e001e7868c629d3903a554f29 *12 Devil With a Blue Dress.flac
8f9653fa807385ee920d513ae95e56c0 *13 Tuning.flac
bd010769c9d694ee6623d73ed48f39b2 *14 China Cat Sunflower.flac
ffbeb3e6e1e1e61da1392b871f2e2f98 *15 I Know You Rider.flac
37b97f3367b849da8d84d62ec70006c8 *16 Playing In The Band.flac
927bfebf7ff0909c1ea4ae8195dfee77 *17 China Doll.flac
3b535b8a69cc7668823cf7a5fbcb1b29 *18 Drums.flac
c2f0466ce397c6ca7731e170da936221 *19 Space.flac
a7216fbceb453b060a1832d70261bf01 *20 The Wheel.flac
7174864a8e6b7ff9742d0e3b546b7d54 *21 Gimme Some Lovin'.flac
b5bc46e4ea79590d264495e822cd0c67 *22 Throwing Stones.flac
3fc2eba1d6e4c334772a351ded07ea13 *23 Not Fade Away.flac
989f497c886fac57910db9a0a1404c27 *24 Encore Break.flac
ab42c6288901b028252bbb9a71d9c141 *25 Not Fade Away.flac
dc7f70f6b37df7654ddc1a8b6e0a7cd8 *26 The Mighty Quinn (Quinn The Eskimo).flac
ffp
01 Tuning.flac:e3e3bfce018f666829ddd8a00178d9ea
02 Hey Pocky Way.flac:9ef213a7d36b6e43352d10bf4bf3765c
03 Jack Straw.flac:67b99e1888ca89c57bf61f7131ccd2b4
04 West LA Fadeaway.flac:86f9be4da6b8b284a0873a1d45669ecc
05 When I Paint My Masterpiece.flac:940ffe5c21ec4b0d37bb5dd015375597
06 Friend Of The Devil.flac:7332ce1b65241ba0f2c9db0b42b6d0b6
07 Cassidy.flac:a486c3cdc16c2c1f2bd6f7246653becf
08 Althea.flac:96a4b9cb83740ec3f8427e733660425e
09 Greatest Story Ever Told.flac:aab298e420152478448c7b8359d4adfe
10 Devil With a Blue Dress.flac:3d495d8e2ddc4237cea16cf1332732ce
11 Good Golly Miss Molly.flac:c6c83df972aff54d25716f37e4e01d2b
12 Devil With a Blue Dress.flac:e590a9de318cba7d0d1a7376478b9fa8
13 Tuning.flac:675a3d1a2b6106195be889fe4760054d
14 China Cat Sunflower.flac:b85bbc883fb1453ccc9442d94da5257b
15 I Know You Rider.flac:f837cfdbebcc764027530aa9a1762cff
16 Playing In The Band.flac:6455a01a3e9b8c6aec93d93739c736db
17 China Doll.flac:54b30dfbf9a4df44e0f3f29a876cff1d
18 Drums.flac:a749ffae93e7dceebb51a6b788e5fee6
19 Space.flac:4e3b050e9448b633fbc4aa9715c04c21
20 The Wheel.flac:f2e789f2c582a7ce63f1dbf9fed3ea1f
21 Gimme Some Lovin'.flac:217c38f3413533ff561db55c9b182688
22 Throwing Stones.flac:8c6eaa641fde2aadb4c99a904ba4101b
23 Not Fade Away.flac:9041d4ea0101cc7a5a0bdd9d17612add
24 Encore Break.flac:f6fdeb6dd74936d029f6ddae21df47e2
25 Not Fade Away.flac:f1f98df026dbd02883bfdcd066a02fb8
26 The Mighty Quinn (Quinn The Eskimo).flac:fd395723d7dc22065db92447d630c7ac

Comments
Add Comment
Other Sources (comments)
Nak 300's > Sony D5 Casette... (1) Sony ECM220T mics from... (0) Source: Audience (but see... (0) Recording Info: SBD ->... (0) flac16; AUD,... (0) flac16; taper : Joe... (0) flac16; Nakamichi... (0) flac16; Recording... (0) flac16; Recording... (0)
Date User Comment