Browse Collections Artists Sources   Search Dates

Add Show    List Management    Help


Grateful Dead 05/06/81
Nassau Coliseum, Uniondale, NY
Comments Add Comment    Source Collectors    Add to Collection    Add to Want List    History
Source # 139785 Other Sources
Entered by Matt Vernon
Checksums ffp , flac-md5
Disc Counts 0 / 0
Media Size
Date Circulated
Date Added
11/13/2017
11/13/2017
Source Summary flac16; Set 2 Source Info: Frank Streeter's Master FOB Audience Cassette; Unknown mics (?? Sennheiser 421's ??) > Sony TC-D5M (TDK MA90); Transfer Info: Cassette Master (Nakamichi CR-7A) > Tascam DA-3000 (DSF 1-bit/5.8 MHz)> KORG AudioGate 4 > Adobe Audition 3.0> TLH flac2496 
  Archive
Source Information - Download Text | Download Zip
Grateful Dead
Nassau Veterans Memorial Coliseum
Uniondale, NY
Wednesday May 6, 1981

This is a 16/44 fileset. 24 bit to 16 bit via dBpoweramp

Source Info:
Frank Streeter's Master FOB Audience Cassette; Unknown mics (?? Sennheiser 421's ??) > Sony TC-D5M (TDK MA90)

Transfer Info:
Cassette Master (Nakamichi CR-7A) > Tascam DA-3000 (DSF 1-bit/5.8 MHz)> KORG AudioGate 4 > Adobe Audition 3.0> TLH flac2496

Notes:
- Thanks to Frank Streeter for the master recording
- Thanks to Charlie Miller for the transfer
- Thanks to the folks responsible for the shnid82368 sennheiser 421 source which supplies the first 0:15 of "New Minglewood Blues", from 15:50 thru 16:13 of "He's Gone", from 0:34 thru 7:06 of "Drums", as well as the "Don't Ease Me In" encore
- Transitions smoothed
- "He's Gone" dedicated to Bobby Sands
- "He's Gone" clocks in at 27:05
- noodling into "The Other One" included in "The Other One"
- This set is seamless

Transfer by Charlie Miller
Mastered by Scott Clugston
11/12/17

Set Two:
s2 t01. New Minglewood Blues
s2 t02. High Time ->
s2 t03. Lost Sailor ->
s2 t04. Saint Of Circumstance ->
s2 t05. He's Gone ->
        Caution Jam ->
        Spanish Jam ->
s2 t06. Drums ->
s2 t07. Space ->
s2 t08. The Other One ->
s2 t09. Going Down The Road Feeling Bad ->
s2 t10. Wharf Rat ->
s2 t11. Good Lovin'
Encore:
s2 t12. Don't Ease Me In



      length     expanded size    cdr  WAVE problems  fmt   ratio  filename
     6:54.05       73041404 B   ---   --   ---xx   flac  0.6750  gd81-05-06 s2 t01 New Minglewood Blues.flac
     9:36.12      101634668 B   ---   --   ---xx   flac  0.6422  gd81-05-06 s2 t02 High Time.flac
     6:10.17       65308028 B   ---   --   ---xx   flac  0.6602  gd81-05-06 s2 t03 Lost Sailor.flac
     6:26.36       68175116 B   ---   --   ---xx   flac  0.6952  gd81-05-06 s2 t04 Saint Of Circumstance.flac
    27:05.59      286788812 B   ---   --   ---xx   flac  0.6524  gd81-05-06 s2 t05 He's Gone.flac
     7:17.23       77140940 B   ---   --   ---xx   flac  0.5583  gd81-05-06 s2 t06 Drums.flac
     3:43.45       39443084 B   ---   --   ---xx   flac  0.6183  gd81-05-06 s2 t07 Space.flac
     5:57.07       62991308 B   ---   --   ---xx   flac  0.6492  gd81-05-06 s2 t08 The Other One.flac
     5:36.55       59399804 B   ---   --   ---xx   flac  0.6709  gd81-05-06 s2 t09 Going Down The Road.flac
     9:11.04       97205852 B   ---   --   ---xx   flac  0.6336  gd81-05-06 s2 t10 Wharf Rat.flac
     7:10.07       75868508 B   ---   --   ---xx   flac  0.6746  gd81-05-06 s2 t11 Good Lovin'.flac
     3:22.31       35705756 B   ---   --   ---xx   flac  0.6142  gd81-05-06 s2 t12 Don't Ease Me In.flac
    98:31.01     1042703280 B                            0.6474  (12 files)

No errors occured.


Show Checksums
ffp
gd81-05-06 s2 t01 New Minglewood Blues.flac:0c30fe8a173d6ade4d04a8e243597260
gd81-05-06 s2 t02 High Time.flac:4e79ec66eb71fe3ca8691961869e5805
gd81-05-06 s2 t03 Lost Sailor.flac:72275471692b875957c252512a5b6258
gd81-05-06 s2 t04 Saint Of Circumstance.flac:bb19939242075ea1e47ef47dee70ceaf
gd81-05-06 s2 t05 He's Gone.flac:ab07f1890a3d09bf3e740b94877f1d2d
gd81-05-06 s2 t06 Drums.flac:a28b7a171b6b7975c42010a0742e4f74
gd81-05-06 s2 t07 Space.flac:e07e4531bd227459032abcc6f244aba4
gd81-05-06 s2 t08 The Other One.flac:7a3e3bd89f03eeff30fd67b00d5bad0f
gd81-05-06 s2 t09 Going Down The Road.flac:4e53c152be39ab0c489a11cdd5c4b29b
gd81-05-06 s2 t10 Wharf Rat.flac:118410893f211f70aa082ac60f44c369
gd81-05-06 s2 t11 Good Lovin'.flac:bfa027da13fdb099a9529ed1a4cb558e
gd81-05-06 s2 t12 Don't Ease Me In.flac:5b34f05da4658e97daf61f408267928e
flac-md5
b085e424dce8504e86c53b996d4b3fc9 *gd81-05-06 s2 t01 New Minglewood Blues.flac
5ef99cc4d8208b81d4d988176bc52671 *gd81-05-06 s2 t02 High Time.flac
9c98482ef9a5e684113cb87a706e707c *gd81-05-06 s2 t03 Lost Sailor.flac
f67e6da97ecd6bb6455613d60529bbde *gd81-05-06 s2 t04 Saint Of Circumstance.flac
91117e5975e3974176dbe37f4877d1d9 *gd81-05-06 s2 t05 He's Gone.flac
9b17c826ee4b3b74a1c6e053c63b8179 *gd81-05-06 s2 t06 Drums.flac
b2f51ccc796956a0388f09c9dbe275c8 *gd81-05-06 s2 t07 Space.flac
fc0fca70189d6a12ec7832a97fe219cf *gd81-05-06 s2 t08 The Other One.flac
bb1361b0adcd367727e996a1af09ef3a *gd81-05-06 s2 t09 Going Down The Road.flac
c722b477f8199e36ab1381c2f3dbf3c0 *gd81-05-06 s2 t10 Wharf Rat.flac
44b8fc2423a9069307dd5ca62b449ea1 *gd81-05-06 s2 t11 Good Lovin'.flac
b96ae5ad10bb2bcba8255f55db4e5a4e *gd81-05-06 s2 t12 Don't Ease Me In.flac

Comments
Add Comment
Other Sources (comments)
Recording by Barry... (0) NAK-700's > SONY TC-D5M... (1) flac16; Recording by... (0) flac24; source: aud... (0) flac16; source: aud... (0) flac24; Set 2 Source... (0) flac16; Source Info:... (0) flac24; Source Info:... (0)
Date User Comment