Browse Collections Artists Sources   Search Dates

Add Show    List Management    Help


Grateful Dead 05/06/81
Nassau Coliseum, Uniondale, NY
Comments Add Comment    Source Collectors    Add to Collection    Add to Want List    History
Source # 139786 Other Sources
Entered by Matt Vernon
Checksums ffp , flac-md5
Disc Counts 0 / 0
Media Size
Date Circulated
Date Added
11/13/2017
11/13/2017
Source Summary flac24; Set 2 Source Info: Frank Streeter's Master FOB Audience Cassette; Unknown mics (?? Sennheiser 421's ??) > Sony TC-D5M (TDK MA90); Transfer Info: Cassette Master (Nakamichi CR-7A) > Tascam DA-3000 (DSF 1-bit/5.8 MHz)> KORG AudioGate 4 > Adobe Audition 3.0> TLH flac2496 
  Archive
Source Information - Download Text | Download Zip
Grateful Dead
Nassau Veterans Memorial Coliseum
Uniondale, NY
Wednesday May 6, 1981

Source Info:
Frank Streeter's Master FOB Audience Cassette; Unknown mics (?? Sennheiser 421's ??) > Sony TC-D5M (TDK MA90)

Transfer Info:
Cassette Master (Nakamichi CR-7A) > Tascam DA-3000 (DSF 1-bit/5.8 MHz)> KORG AudioGate 4 > Adobe Audition 3.0> TLH flac2496

Notes:
- Thanks to Frank Streeter for the master recording
- Thanks to Charlie Miller for the transfer
- Thanks to the folks responsible for the shnid82368 sennheiser 421 source which supplies the first 0:15 of "New Minglewood Blues", from 15:50 thru 16:13 of "He's Gone", from 0:34 thru 7:06 of "Drums", as well as the "Don't Ease Me In" encore
- Transitions smoothed
- "He's Gone" dedicated to Bobby Sands
- "He's Gone" clocks in at 27:05
- noodling into "The Other One" included in "The Other One"
- This set is seamless

Transfer by Charlie Miller
Mastered by Scott Clugston
11/12/17

Set Two:
s2 t01. New Minglewood Blues
s2 t02. High Time ->
s2 t03. Lost Sailor ->
s2 t04. Saint Of Circumstance ->
s2 t05. He's Gone ->
        Caution Jam ->
        Spanish Jam ->
s2 t06. Drums ->
s2 t07. Space ->
s2 t08. The Other One ->
s2 t09. Going Down The Road Feeling Bad ->
s2 t10. Wharf Rat ->
s2 t11. Good Lovin'
Encore:
s2 t12. Don't Ease Me In


    length     expanded size    cdr  WAVE problems  fmt   ratio  filename
     6:54.067     238502444 B   cxx   --   ---xx   flac  0.7021  gd81-05-06 s2 t01 New Minglewood Blues.flac
     9:36.160     331868204 B   cxx   --   ---xx   flac  0.6934  gd81-05-06 s2 t02 High Time.flac
     6:10.227     213250604 B   cxx   --   ---xx   flac  0.7003  gd81-05-06 s2 t03 Lost Sailor.flac
     6:26.480     222612524 B   cxx   --   ---xx   flac  0.7132  gd81-05-06 s2 t04 Saint Of Circumstance.flac
    27:05.787     936453164 B   cxx   --   ---xx   flac  0.6920  gd81-05-06 s2 t05 He's Gone.flac
     7:17.307     251888684 B   cxx   --   ---xx   flac  0.5806  gd81-05-06 s2 t06 Drums.flac
     3:43.600     128793644 B   cxx   --   ---xx   flac  0.6827  gd81-05-06 s2 t07 Space.flac
     5:57.093     205685804 B   cxx   --   ---xx   flac  0.6967  gd81-05-06 s2 t08 The Other One.flac
     5:36.733     193958444 B   cxx   --   ---xx   flac  0.7052  gd81-05-06 s2 t09 Going Down The Road.flac
     9:11.053     317406764 B   cxx   --   ---xx   flac  0.6910  gd81-05-06 s2 t10 Wharf Rat.flac
     7:10.093     247733804 B   cxx   --   ---xx   flac  0.7073  gd81-05-06 s2 t11 Good Lovin'.flac
     3:22.402     116583620 B   cxx   --   ---xx   flac  0.6090  gd81-05-06 s2 t12 Don't Ease Me In.flac
    98:31.002    3404737704 B                            0.6854  (12 files)

No errors occured.


Show Checksums
ffp
gd81-05-06 s2 t01 New Minglewood Blues.flac:45752d4b18edfa02437de69b85d6cd6a
gd81-05-06 s2 t02 High Time.flac:611eb3c6de430a53d3c747f8c765fa18
gd81-05-06 s2 t03 Lost Sailor.flac:2e14761551f7ddef934108b6999c5c00
gd81-05-06 s2 t04 Saint Of Circumstance.flac:cd4f4fe4dedb0a37b3c7ef7a662b6f06
gd81-05-06 s2 t05 He's Gone.flac:f63be44a36067d2eac901b858ca68a8c
gd81-05-06 s2 t06 Drums.flac:0a680c5a1cae409dc48f36d90c849ac3
gd81-05-06 s2 t07 Space.flac:a02f113fd7559c692202a315472f952b
gd81-05-06 s2 t08 The Other One.flac:127d095c0d6a41e0be5861326f8ab7f5
gd81-05-06 s2 t09 Going Down The Road.flac:057c4e7ddea9ebcb518df62826278e15
gd81-05-06 s2 t10 Wharf Rat.flac:c1fb12d91f04b0b8b3b828abdbda141e
gd81-05-06 s2 t11 Good Lovin'.flac:007b60863ca93d1059acae79822cb850
gd81-05-06 s2 t12 Don't Ease Me In.flac:3dbca68ccbd55db1e3c82b898a4932b7
flac-md5
96c1fa5133faa7c9429742b266062183 *gd81-05-06 s2 t01 New Minglewood Blues.flac
0e6050f1247218d0ded6b0e6d36ef039 *gd81-05-06 s2 t02 High Time.flac
96da2d3b8d8db561a20bebea0fe780e8 *gd81-05-06 s2 t03 Lost Sailor.flac
bf4a82c73478227aa362e460046dc40c *gd81-05-06 s2 t04 Saint Of Circumstance.flac
8e901a52fe267a2715adcabaa3de69e1 *gd81-05-06 s2 t05 He's Gone.flac
63697cde2dcf861b94392e9c87466bf5 *gd81-05-06 s2 t06 Drums.flac
15f44ef097b39c572bd80cf61ed97a95 *gd81-05-06 s2 t07 Space.flac
d442a40f96ccff8a3b0027f5fe58cf29 *gd81-05-06 s2 t08 The Other One.flac
0d6b12512691b995f41f9ade553beaa6 *gd81-05-06 s2 t09 Going Down The Road.flac
5e4203e13ecd528286fd417b25e67daa *gd81-05-06 s2 t10 Wharf Rat.flac
1d01a0e17f7745af1f4904dcaeca34fb *gd81-05-06 s2 t11 Good Lovin'.flac
c11ba89e7a06ba06297eca82ac9614c0 *gd81-05-06 s2 t12 Don't Ease Me In.flac

Comments
Add Comment
Other Sources (comments)
Recording by Barry... (0) NAK-700's > SONY TC-D5M... (1) flac16; Recording by... (0) flac24; source: aud... (0) flac16; source: aud... (0) flac16; Set 2 Source... (0) flac16; Source Info:... (0) flac24; Source Info:... (0)
Date User Comment