Browse Collections Artists Sources   Search Dates

Add Show    List Management    Help


Grateful Dead 05/08/81
Nassau Coliseum, Uniondale, NY
Comments Add Comment    Source Collectors    Add to Collection    Add to Want List    History
Source # 139787 Other Sources
Entered by Matt Vernon
Checksums ffp , flac-md5
Disc Counts 0 / 0
Media Size
Date Circulated
Date Added
11/13/2017
11/13/2017
Source Summary flac16; Source Info: Frank Streeter's Master FOB Audience Cassette; Unknown mics (?? Sennheiser 421's ??) > Sony TC-D5M (TDK MA90); Transfer Info: Cassette Master (Nakamichi CR-7A) > Tascam DA-3000 (DSF 1-bit/5.8 MHz)> KORG AudioGate 4 > Adobe Audition 3.0> TLH flac2496 
  Archive
Source Information - Download Text | Download Zip
Grateful Dead
Nassau Veterans Memorial Coliseum
Uniondale, NY
Friday May 8, 1981

This is a 16/44 fileset. 24 bit to 16 bit via dBpoweramp

Source Info:
Frank Streeter's Master FOB Audience Cassette; Unknown mics (?? Sennheiser 421's ??) > Sony TC-D5M (TDK MA90)

Transfer Info:
Cassette Master (Nakamichi CR-7A) > Tascam DA-3000 (DSF 1-bit/5.8 MHz)> KORG AudioGate 4 > Adobe Audition 3.0> TLH flac2496

Notes:
- Thanks to Frank Streeter for the master recording
- Thanks to Charlie Miller for the transfer
- Thanks to the folks responsible for the shnid17698 nak700 source which supplies from 8:57 thru 9:31 in "Playing In The Band", from 7:17 thru 7:50 in "Drums", as well as "Sugar Magnolia" and "US Blues" in their entirety
- Transitions smoothed
- Tape flip in "Drums" smoothed

Transfer by Charlie Miller
Mastered by Scott Clugston
11/11/17

Set One:
s1 t01. Crowd /Tuning
s1 t02. Jack Straw
s1 t03. Peggy O
s1 t04. Me & My Uncle ->
s1 t05. Big River
s1 t06. Loser
s1 t07. CC Rider
s1 t08. Althea
s1 t09. Let It Grow ->
s1 t10. Don't Ease Me In

Set Two:
s2 t01. Shakedown Street ->
s2 t02. Samson & Delilah
s2 t03. Terrapin Station ->
s2 t04. Playing In The Band ->
s2 t05. Drums ->
s2 t06. Space ->
s2 t07. Not Fade Away ->
s2 t08. Stella Blue ->
s2 t09. Sugar Magnolia
Encore:
s2 t10. US Blues



     length     expanded size    cdr  WAVE problems  fmt   ratio  filename
     0:44.01        7763996 B   ---   --   ---xx   flac  0.5813  gd81-05-08 s1 t01 Crowd_Tuning.flac
     5:33.32       58816508 B   ---   --   ---xx   flac  0.6980  gd81-05-08 s1 t02 Jack Straw.flac
     6:52.02       72681548 B   ---   --   ---xx   flac  0.6764  gd81-05-08 s1 t03 Peggy O.flac
     2:57.19       31267532 B   ---   --   ---xx   flac  0.7014  gd81-05-08 s1 t04 Me & My Uncle.flac
     6:07.26       64799996 B   ---   --   ---xx   flac  0.6966  gd81-05-08 s1 t05 Big River.flac
     9:20.09       98805212 B   ---   --   ---xx   flac  0.6564  gd81-05-08 s1 t06 Loser.flac
     8:07.36       85991516 B   ---   --   ---xx   flac  0.6655  gd81-05-08 s1 t07 CC Rider.flac
     8:33.23       90547340 B   ---   --   ---xx   flac  0.6658  gd81-05-08 s1 t08 Althea.flac
    10:14.00      108309644 B   ---   --   ---xx   flac  0.6880  gd81-05-08 s1 t09 Let It Grow.flac
     3:12.17       33908828 B   ---   --   ---xx   flac  0.6863  gd81-05-08 s1 t10 Don't Ease Me In.flac
    16:09.67      171089228 B   ---   --   ---xx   flac  0.6644  gd81-05-08 s2 t01 Shakedown Street.flac
     7:22.64       78119372 B   ---   --   ---xx   flac  0.6803  gd81-05-08 s2 t02 Samson & Delilah.flac
    12:33.55      132958604 B   ---   --   ---xx   flac  0.6472  gd81-05-08 s2 t03 Terrapin Station.flac
    16:08.70      170919884 B   ---   --   ---xx   flac  0.6568  gd81-05-08 s2 t04 Playing In The Band.flac
     8:22.25       88611644 B   ---   --   ---xx   flac  0.6344  gd81-05-08 s2 t05 Drums.flac
     5:43.58       60641660 B   ---   --   ---xx   flac  0.6164  gd81-05-08 s2 t06 Space.flac
     9:00.33       95333660 B   ---   --   ---xx   flac  0.6375  gd81-05-08 s2 t07 Not Fade Away.flac
     9:11.19       97241132 B   ---   --   ---xx   flac  0.5912  gd81-05-08 s2 t08 Stella Blue.flac
     9:11.00       97196444 B   ---   --   ---xx   flac  0.7115  gd81-05-08 s2 t09 Sugar Magnolia.flac
     5:51.72       62085788 B   ---   --   ---xx   flac  0.6922  gd81-05-08 s2 t10 US Blues.flac
   161:17.28     1707089536 B                            0.6626  (20 files)

No errors occured.


Show Checksums
ffp
gd81-05-08 s1 t01 Crowd_Tuning.flac:624209fa7fc8031b7305f780a8f9dabe
gd81-05-08 s1 t02 Jack Straw.flac:db937a0c90ea5a9d257f152310a6da1d
gd81-05-08 s1 t03 Peggy O.flac:366d5c7eacfee90fb8a72416fa101571
gd81-05-08 s1 t04 Me & My Uncle.flac:503ae3ca4724e2424776e0274eb8c9d3
gd81-05-08 s1 t05 Big River.flac:773f5f1741f05ec6e3cf8ae4def00095
gd81-05-08 s1 t06 Loser.flac:9726827f9afc071ec3665d531f3c5d65
gd81-05-08 s1 t07 CC Rider.flac:40f87ba26d523c321cbb79adcfbc5eaf
gd81-05-08 s1 t08 Althea.flac:faea55291e1188968ceee5291421b944
gd81-05-08 s1 t09 Let It Grow.flac:6b1198fbfbf9cbab794a12cd44447fde
gd81-05-08 s1 t10 Don't Ease Me In.flac:ab10e63282ec8aae21a6709210abd167
gd81-05-08 s2 t01 Shakedown Street.flac:1a3f3614146b68807789ff13d2de5640
gd81-05-08 s2 t02 Samson & Delilah.flac:8d5aad45ee00e154713e1e8e384456f6
gd81-05-08 s2 t03 Terrapin Station.flac:85b6ebe372fba8b82f88f45f7b44f4f5
gd81-05-08 s2 t04 Playing In The Band.flac:ca142a369965d666be46152299c48328
gd81-05-08 s2 t05 Drums.flac:b3ae881b0794fd0808e87ca4cd6e81a6
gd81-05-08 s2 t06 Space.flac:037f4c1668d382efe1994063153f072b
gd81-05-08 s2 t07 Not Fade Away.flac:46917e7d068bffde45730749088c0968
gd81-05-08 s2 t08 Stella Blue.flac:a198d159dda4ba3f197a5814ddbd19c5
gd81-05-08 s2 t09 Sugar Magnolia.flac:dede34b46a1a647944f1fca6f3114a12
gd81-05-08 s2 t10 US Blues.flac:e6f0c4e968fb84952b8bfdd5523b9342
flac-md5
f22d7a51b276feccb428ef62dfdc2cf0 *gd81-05-08 s1 t01 Crowd_Tuning.flac
621dddc1e367008b16a0a7c579212eda *gd81-05-08 s1 t02 Jack Straw.flac
fc499f899669107bcedf735ed0873eda *gd81-05-08 s1 t03 Peggy O.flac
1bb192839876ddf33780e0608c9413fd *gd81-05-08 s1 t04 Me & My Uncle.flac
9830b1cdd3e50683311043d5730e291a *gd81-05-08 s1 t05 Big River.flac
325e0b77566ebe6e4ba9ec9c651d3b51 *gd81-05-08 s1 t06 Loser.flac
ae423e4cc046745ff527eb2cec77708d *gd81-05-08 s1 t07 CC Rider.flac
d46cc5c4ad2ebf59d1f7a07c99abe98a *gd81-05-08 s1 t08 Althea.flac
31f71593c8a04cf2a5f62c3189110238 *gd81-05-08 s1 t09 Let It Grow.flac
a17f946644f911452dcb04fb4b50ab47 *gd81-05-08 s1 t10 Don't Ease Me In.flac
2c98d6d98146ebad020ecfa7e571f80f *gd81-05-08 s2 t01 Shakedown Street.flac
246e2a81f9d14098e11e353f2316f1d0 *gd81-05-08 s2 t02 Samson & Delilah.flac
18e4c506756c92103c3a9f0b7d4af046 *gd81-05-08 s2 t03 Terrapin Station.flac
9c59fbfce98c5a7c1996247c194e7636 *gd81-05-08 s2 t04 Playing In The Band.flac
0327bae96d4f105cd3c44f489d4e38d9 *gd81-05-08 s2 t05 Drums.flac
4630194c4d5d1e1ed29fd1ac350df61a *gd81-05-08 s2 t06 Space.flac
c1e52169aa404017c497316ead95ffda *gd81-05-08 s2 t07 Not Fade Away.flac
8e6662ea6902a2dc919b2b751804dff9 *gd81-05-08 s2 t08 Stella Blue.flac
9f9966083fae8f25bae2634fbf001492 *gd81-05-08 s2 t09 Sugar Magnolia.flac
1556ab97ec3deb7099ef218bada9c4b3 *gd81-05-08 s2 t10 US Blues.flac

Comments
Add Comment
Other Sources (comments)
Recording by Jim Wise: FOB... (1) Recording by Barry... (4) SBD> Master Cassette> Dat... (0) flac16; MATRIX MIX:... (0) flac16; Recording... (0) flac24; Cassette... (0) flac24; source: aud... (0) flac16; source: aud... (0) flac16; Set 2 AUD:... (0) flac24; Set 2 AUD:... (0) flac24; Source Info:... (0)
Date User Comment