Browse Collections Artists Sources   Search Dates

Add Show    List Management    Help


Grateful Dead 05/08/81
Nassau Coliseum, Uniondale, NY
Comments Add Comment    Source Collectors    Add to Collection    Add to Want List    History
Source # 139788 Other Sources
Entered by Matt Vernon
Checksums ffp , flac-md5
Disc Counts 0 / 0
Media Size
Date Circulated
Date Added
11/13/2017
11/13/2017
Source Summary flac24; Source Info: Frank Streeter's Master FOB Audience Cassette; Unknown mics (?? Sennheiser 421's ??) > Sony TC-D5M (TDK MA90); Transfer Info: Cassette Master (Nakamichi CR-7A) > Tascam DA-3000 (DSF 1-bit/5.8 MHz)> KORG AudioGate 4 > Adobe Audition 3.0> TLH flac2496 
  Archive
Source Information - Download Text | Download Zip
Grateful Dead
Nassau Veterans Memorial Coliseum
Uniondale, NY
Friday May 8, 1981

Source Info:
Frank Streeter's Master FOB Audience Cassette; Unknown mics (?? Sennheiser 421's ??) > Sony TC-D5M (TDK MA90)

Transfer Info:
Cassette Master (Nakamichi CR-7A) > Tascam DA-3000 (DSF 1-bit/5.8 MHz)> KORG AudioGate 4 > Adobe Audition 3.0> TLH flac2496

Notes:
- Thanks to Frank Streeter for the master recording
- Thanks to Charlie Miller for the transfer
- Thanks to the folks responsible for the shnid17698 nak700 source which supplies from 8:57 thru 9:31 in "Playing In The Band", from 7:17 thru 7:50 in "Drums", as well as "Sugar Magnolia" and "US Blues" in their entirety
- Transitions smoothed
- Tape flip in "Drums" smoothed

Transfer by Charlie Miller
Mastered by Scott Clugston
11/11/17

Set One:
s1 t01. Crowd /Tuning
s1 t02. Jack Straw
s1 t03. Peggy O
s1 t04. Me & My Uncle ->
s1 t05. Big River
s1 t06. Loser
s1 t07. CC Rider
s1 t08. Althea
s1 t09. Let It Grow ->
s1 t10. Don't Ease Me In

Set Two:
s2 t01. Shakedown Street ->
s2 t02. Samson & Delilah
s2 t03. Terrapin Station ->
s2 t04. Playing In The Band ->
s2 t05. Drums ->
s2 t06. Space ->
s2 t07. Not Fade Away ->
s2 t08. Stella Blue ->
s2 t09. Sugar Magnolia
Encore:
s2 t10. US Blues



     length     expanded size    cdr  WAVE problems  fmt   ratio  filename
     0:44.013      25351724 B   cxx   --   ---xx   flac  0.6557  gd81-05-08 s1 t01 Crowd_Tuning.flac
     5:33.427     192053804 B   cxx   --   ---xx   flac  0.7205  gd81-05-08 s1 t02 Jack Straw.flac
     6:52.027     237327404 B   cxx   --   ---xx   flac  0.7105  gd81-05-08 s1 t03 Peggy O.flac
     2:57.253     102097964 B   cxx   --   ---xx   flac  0.7107  gd81-05-08 s1 t04 Me & My Uncle.flac
     6:07.347     211591724 B   cxx   --   ---xx   flac  0.7095  gd81-05-08 s1 t05 Big River.flac
     9:20.120     322629164 B   cxx   --   ---xx   flac  0.6946  gd81-05-08 s1 t06 Loser.flac
     8:07.480     280788524 B   cxx   --   ---xx   flac  0.6969  gd81-05-08 s1 t07 CC Rider.flac
     8:33.307     295664684 B   cxx   --   ---xx   flac  0.6988  gd81-05-08 s1 t08 Althea.flac
    10:14.000     353664044 B   cxx   --   ---xx   flac  0.7072  gd81-05-08 s1 t09 Let It Grow.flac
     3:12.237     110728292 B   cxx   --   ---xx   flac  0.7073  gd81-05-08 s1 t10 Don't Ease Me In.flac
    16:09.893     558658604 B   cxx   --   ---xx   flac  0.7022  gd81-05-08 s2 t01 Shakedown Street.flac
     7:22.853     255083564 B   cxx   --   ---xx   flac  0.7008  gd81-05-08 s2 t02 Samson & Delilah.flac
    12:33.733     434150444 B   cxx   --   ---xx   flac  0.6883  gd81-05-08 s2 t03 Terrapin Station.flac
    16:08.933     558105644 B   cxx   --   ---xx   flac  0.6876  gd81-05-08 s2 t04 Playing In The Band.flac
     8:22.333     289344044 B   cxx   --   ---xx   flac  0.6781  gd81-05-08 s2 t05 Drums.flac
     5:43.773     198013484 B   cxx   --   ---xx   flac  0.6782  gd81-05-08 s2 t06 Space.flac
     9:00.440     311293484 B   cxx   --   ---xx   flac  0.6838  gd81-05-08 s2 t07 Not Fade Away.flac
     9:11.253     317521964 B   cxx   --   ---xx   flac  0.6707  gd81-05-08 s2 t08 Stella Blue.flac
     9:11.000     317376044 B   cxx   --   ---xx   flac  0.6488  gd81-05-08 s2 t09 Sugar Magnolia.flac
     5:51.941     202717880 B   cxx   --   ---xx   flac  0.6383  gd81-05-08 s2 t10 US Blues.flac
   161:17.364    5574162484 B                            0.6900  (20 files)

No errors occured.


Show Checksums
ffp
gd81-05-08 s1 t01 Crowd_Tuning.flac:55ac6818b4d9a212f590b71048bd0bf0
gd81-05-08 s1 t02 Jack Straw.flac:0c86f7580d83a729cba1e471404ab32c
gd81-05-08 s1 t03 Peggy O.flac:124ebe1e58728beb666ea2d1b299bb74
gd81-05-08 s1 t04 Me & My Uncle.flac:834bd1becf6fd1bc68d8576d50480cda
gd81-05-08 s1 t05 Big River.flac:f58332e445b27817d8e2b1352e3eec5f
gd81-05-08 s1 t06 Loser.flac:1151968d9e6aac7f7aee597e7d3a4de8
gd81-05-08 s1 t07 CC Rider.flac:4b4baf8cd6adc467a77fdef01a3fc463
gd81-05-08 s1 t08 Althea.flac:fa9ce106ed6ac1397ac9048e0aca3374
gd81-05-08 s1 t09 Let It Grow.flac:a00f5d319849c17ebb7c7d1d6821d454
gd81-05-08 s1 t10 Don't Ease Me In.flac:2f29bb0f19d6d15695153783e36360f7
gd81-05-08 s2 t01 Shakedown Street.flac:d0a0527d3b1d1088d5f94cc6d7a30d89
gd81-05-08 s2 t02 Samson & Delilah.flac:5bd796838344a0b06c8224560e04a852
gd81-05-08 s2 t03 Terrapin Station.flac:3cda614c779653605de052151a3f8afb
gd81-05-08 s2 t04 Playing In The Band.flac:3fc1cc6d45b0da762943fc8550b9a961
gd81-05-08 s2 t05 Drums.flac:86c19ee128e3da8b1885afe29a6d07b3
gd81-05-08 s2 t06 Space.flac:f191ac726cc6f04d5c897239e3d37c4c
gd81-05-08 s2 t07 Not Fade Away.flac:932763337ee2b98be467b46888d650de
gd81-05-08 s2 t08 Stella Blue.flac:140445450acf86e4cd515aeb5a1f5bef
gd81-05-08 s2 t09 Sugar Magnolia.flac:12e46ce1e80d0e6c4ce7da4659af7d55
gd81-05-08 s2 t10 US Blues.flac:078b2de06c3c3a69e8668d6049859031
flac-md5
19138ffeb6abd116243aa06c90a83382 *gd81-05-08 s1 t01 Crowd_Tuning.flac
c51c353687e813d4a768c6f43351bfea *gd81-05-08 s1 t02 Jack Straw.flac
18cd65a61164d89ac4476ddff305ceb5 *gd81-05-08 s1 t03 Peggy O.flac
1ffcd49d6c6313036d5bc52780bab239 *gd81-05-08 s1 t04 Me & My Uncle.flac
a7376dd8fe835b7bc0d0e64de4e2331b *gd81-05-08 s1 t05 Big River.flac
412a361822fe61651adecd501f80f169 *gd81-05-08 s1 t06 Loser.flac
20c97c61d79b674c0831c5120633fcab *gd81-05-08 s1 t07 CC Rider.flac
580de41dce07e643527b07afba88a8bf *gd81-05-08 s1 t08 Althea.flac
245c2eeb5a351949c971ceb6ecaf133c *gd81-05-08 s1 t09 Let It Grow.flac
02de86f6540d7efc96c2b14b151153e5 *gd81-05-08 s1 t10 Don't Ease Me In.flac
b42180237d14260660c3817eb19278c6 *gd81-05-08 s2 t01 Shakedown Street.flac
39fd3788a7dab1b9364169a21c229459 *gd81-05-08 s2 t02 Samson & Delilah.flac
c5f7e950a6224bc71e59127b898dbef5 *gd81-05-08 s2 t03 Terrapin Station.flac
1acf09204bbfcea9201ff7e67d41539d *gd81-05-08 s2 t04 Playing In The Band.flac
06709e238f38153b8708f8571f00ba93 *gd81-05-08 s2 t05 Drums.flac
77c982a51c2216e691aee612675005fa *gd81-05-08 s2 t06 Space.flac
c92d401739165aa9b6f76ed69989eba8 *gd81-05-08 s2 t07 Not Fade Away.flac
aebb00a4d42e6c4476d19249eaa97673 *gd81-05-08 s2 t08 Stella Blue.flac
928521f98cc053674f7cacfa5a36b111 *gd81-05-08 s2 t09 Sugar Magnolia.flac
1598fa3abc8d0fef241ef920c610a26e *gd81-05-08 s2 t10 US Blues.flac

Comments
Add Comment
Other Sources (comments)
Recording by Jim Wise: FOB... (1) Recording by Barry... (4) SBD> Master Cassette> Dat... (0) flac16; MATRIX MIX:... (0) flac16; Recording... (0) flac24; Cassette... (0) flac24; source: aud... (0) flac16; source: aud... (0) flac16; Set 2 AUD:... (0) flac24; Set 2 AUD:... (0) flac16; Source Info:... (0)
Date User Comment