Browse Collections Artists Sources   Search Dates

Add Show    List Management    Help


Grateful Dead 03/14/81
Hartford Civic Center, Hartford, CT
Comments Add Comment    Source Collectors    Add to Collection    Add to Want List    History
Source # 139796 Other Sources
Entered by Matt Vernon
Checksums flac-md5 , ffp
Disc Counts 0 / 0
Media Size
Date Circulated
Date Added
11/14/2017
11/14/2017
Source Summary flac16; Source Info: Frank Streeter's Master FOB Audience Cassette; Sennheiser 421 > Sony TC-D5M (TDK MA90); Transfer Info: Cassette Master (Nakamichi CR-7A) > Tascam DA-3000 (DSF 1-bit/5.8 MHz)> KORG AudioGate 4 > Adobe Audition 3.0> TLH flac2496; Transfer by Charlie Miller; Mastered by Scott Clugston 
  Archive
Source Information - Download Text | Download Zip
Grateful Dead
Civic Center
Hartford, CT
Saturday March 14, 1981

This is a 16/44 fileset. 24 bit to 16 bit via dBpoweramp

Source Info:
Frank Streeter's Master FOB Audience Cassette; Sennheiser 421 > Sony TC-D5M (TDK MA90)

Transfer Info:
Cassette Master (Nakamichi CR-7A) > Tascam DA-3000 (DSF 1-bit/5.8 MHz)> KORG AudioGate 4 > Adobe Audition 3.0> TLH flac2496

Transfer by Charlie Miller
Mastered by Scott Clugston
11/13/17

Notes:
- Thanks to Frank Streeter for the source cassettes
- Thanks to Charlie Miller for the transfer
- Thanks to the folks responsible for shnid95288 nak700 source which provides "Me & My Uncle -> Big River", "Peggy O", "Alabama Getaway -> Greatest Story Ever Told", a 1:23 patch at the end of "Drums" and begninning of "Space", as well as "One More Saturday Night"
- Between song transitions smoothed

Set One:
s1 t01. Intro/Crowd
s1 t02. Feel Like A Stranger
s1 t03. Suagree
s1 t04. Me & My Uncle ->
s1 t05. Big River
s1 t06. Peggy O
s1 t07. CC Rider
s1 t08. Althea
s1 t09. Passenger
s1 t10. China Cat Sunflower ->
s1 t11. I Know You Rider

Set Two:
s2 t01. Tuning
s2 t02. Alabama Getaway ->
s2 t03. Greatest Story Ever Told
s2 t04. Ship Of Fools
s2 t05. Lost Sailor ->
s2 t06. Saint Of Circumstance ->
s2 t07. Drums ->
s2 t08. The Other One Space ->
s2 t09. The Other One ->
s2 t10. Stella Blue ->
s2 t11. I Need A Miracle ->
s2 t12. Bertha ->
s2 t13. Good Lovin'
Encore:
s2 t14. One More Saturday Night



    length     expanded size    cdr  WAVE problems  fmt   ratio  filename
     4:12.39       44544572 B   ---   --   ---xx   flac  0.6009  gd81-03-14 s1 t01 Crowd.flac
     9:16.18       98120780 B   ---   --   ---xx   flac  0.6357  gd81-03-14 s1 t02 Feel Like A Stranger.flac
    12:23.41      131161676 B   ---   --   ---xx   flac  0.6431  gd81-03-14 s1 t03 Sugaree.flac
     2:55.31       30942956 B   ---   --   ---xx   flac  0.6835  gd81-03-14 s1 t04 Me & My Uncle.flac
     6:19.71       67022636 B   ---   --   ---xx   flac  0.6742  gd81-03-14 s1 t05 Big River.flac
     7:34.38       80175020 B   ---   --   ---xx   flac  0.6496  gd81-03-14 s1 t06 Peggy O.flac
     9:13.06       97563356 B   ---   --   ---xx   flac  0.6257  gd81-03-14 s1 t07 CC Rider.flac
     9:03.19       95829932 B   ---   --   ---xx   flac  0.6162  gd81-03-14 s1 t08 Althea.flac
     5:32.23       58618940 B   ---   --   ---xx   flac  0.6474  gd81-03-14 s1 t09 Passenger.flac
     5:41.18       60194780 B   ---   --   ---xx   flac  0.6508  gd81-03-14 s1 t10 China Cat Sunflower.flac
     6:15.04       66159452 B   ---   --   ---xx   flac  0.6573  gd81-03-14 s1 t11 I Know You Rider.flac
     1:55.25       20344844 B   ---   --   ---xx   flac  0.6344  gd81-03-14 s2 t01 Crowd.flac
     5:11.10       54883964 B   ---   --   ---xx   flac  0.7305  gd81-03-14 s2 t02 Alabama Getaway.flac
     4:51.21       51381836 B   ---   --   ---xx   flac  0.6945  gd81-03-14 s2 t03 Greatest Story Ever Told.flac
     8:40.15       91763324 B   ---   --   ---xx   flac  0.6269  gd81-03-14 s2 t04 Ship Of Fools.flac
     6:25.28       67979900 B   ---   --   ---xx   flac  0.6306  gd81-03-14 s2 t05 Lost Sailor.flac
     6:57.25       73617644 B   ---   --   ---xx   flac  0.6685  gd81-03-14 s2 t06 Saint Of Circumstance.flac
    12:56.57      137020508 B   ---   --   ---xx   flac  0.5941  gd81-03-14 s2 t07 Drums.flac
     2:44.22       28981388 B   ---   --   ---xx   flac  0.5987  gd81-03-14 s2 t08 The Other One Space.flac
     5:25.44       57433532 B   ---   --   ---xx   flac  0.6481  gd81-03-14 s2 t09 The Other One.flac
    10:03.36      106453916 B   ---   --   ---xx   flac  0.6092  gd81-03-14 s2 t10 Stella Blue.flac
     3:28.40       36785324 B   ---   --   ---xx   flac  0.6798  gd81-03-14 s2 t11 I Need A Miracle.flac
     5:55.03       62629100 B   ---   --   ---xx   flac  0.6799  gd81-03-14 s2 t12 Bertha.flac
     8:16.67       87652028 B   ---   --   ---xx   flac  0.6662  gd81-03-14 s2 t13 Good Lovin'.flac
     5:03.14       53482172 B   ---   --   ---xx   flac  0.7005  gd81-03-14 s2 t14 One More Saturday Night.flac
   166:21.40     1760743580 B                            0.6447  (25 files)

No errors occured.


Show Checksums
flac-md5
ba3b3a87b229cf7b212f8019cc4680a9 *gd81-03-14 s1 t02 Feel Like A Stranger.flac
f74f66487c08bcd6b33e57daeece1af8 *gd81-03-14 s1 t03 Sugaree.flac
950da816fafe0020ebccae975551e575 *gd81-03-14 s1 t04 Me & My Uncle.flac
9f94b2fe19fb9885228ee08bb302612f *gd81-03-14 s1 t05 Big River.flac
b15df5c23f00b28afdca1a0ae1266bd5 *gd81-03-14 s1 t06 Peggy O.flac
a909ed21e2433a9c931ccfaad2e7df60 *gd81-03-14 s1 t07 CC Rider.flac
f98d835740963a338af8e79f04cfea8b *gd81-03-14 s1 t08 Althea.flac
61bc126222fb42a4c13075387aa36a9f *gd81-03-14 s1 t09 Passenger.flac
26f89e938fb3e9f4aefc2bfbcd8612ad *gd81-03-14 s1 t10 China Cat Sunflower.flac
507227024096d164ff0018739ce968ba *gd81-03-14 s1 t11 I Know You Rider.flac
72737ca903ed4ff92e6a74eb4db5cd63 *gd81-03-14 s2 t01 Crowd.flac
f0b80936c39df4d4bbdbbdbdd5767dc5 *gd81-03-14 s2 t02 Alabama Getaway.flac
c0e0fcb0cac1da8f37f3f12f6d4fbdff *gd81-03-14 s2 t03 Greatest Story Ever Told.flac
837b22f5f01c1e0dec4cdfdc0cc1943b *gd81-03-14 s2 t04 Ship Of Fools.flac
8da7fae026ff712518b39117563dc61f *gd81-03-14 s2 t05 Lost Sailor.flac
438c24e6d55b064ca4913b5065c4cccb *gd81-03-14 s2 t06 Saint Of Circumstance.flac
c49fa650a8b297d0fe36f939b70fee35 *gd81-03-14 s2 t07 Drums.flac
356329780a0eb164d4568e5a923205c8 *gd81-03-14 s2 t08 The Other One Space.flac
e236d20db3ede493eb52e34f2425d12d *gd81-03-14 s2 t09 The Other One.flac
54db8ceaabde1b84c699274225a4bbdf *gd81-03-14 s2 t10 Stella Blue.flac
46b99f62a0cb90cb176156ada9af61d8 *gd81-03-14 s2 t11 I Need A Miracle.flac
25062263f92efbee7a309d9522274048 *gd81-03-14 s2 t12 Bertha.flac
bbd4f959f2234f6f335a82a82160f5d7 *gd81-03-14 s2 t13 Good Lovin'.flac
befd6524374a5290578b4ae5a3f61812 *gd81-03-14 s2 t14 One More Saturday Night.flac
ffp
gd81-03-14 s1 t01 Crowd.flac:e581a861ecb93bcd1a075a225409185c
gd81-03-14 s1 t02 Feel Like A Stranger.flac:0c6f101c8f5a487d4114dd5f097df056
gd81-03-14 s1 t03 Sugaree.flac:b8b7b604f55d9794eabb5c62a877d9fe
gd81-03-14 s1 t04 Me & My Uncle.flac:3c7e87be4bf5906beb84950e0c299eb1
gd81-03-14 s1 t05 Big River.flac:d513f9ae498d5d2645c4f21c3f025a5e
gd81-03-14 s1 t06 Peggy O.flac:a4e4698750550c0b273b4ffeed8a6568
gd81-03-14 s1 t07 CC Rider.flac:ff80b6cba0ad01ce77ee46ddad88a43d
gd81-03-14 s1 t08 Althea.flac:90e56a5fc5f9cf2777ca845f45010a7f
gd81-03-14 s1 t09 Passenger.flac:4971218699a78e47836010347e329c72
gd81-03-14 s1 t10 China Cat Sunflower.flac:67f391767707a747ffe23492b6636de4
gd81-03-14 s1 t11 I Know You Rider.flac:edc53c7fe29972eac7448dfa83eda66a
gd81-03-14 s2 t01 Crowd.flac:d2af3a8f953a4ccc72d4ebf89f624d0d
gd81-03-14 s2 t02 Alabama Getaway.flac:17bb4acb764331b3fb2c7ad39e8b9c39
gd81-03-14 s2 t03 Greatest Story Ever Told.flac:36cb667b13bce6f4706c8ae6fb1be5b5
gd81-03-14 s2 t04 Ship Of Fools.flac:8f0eba8b2309688c91b43c40eb93d611
gd81-03-14 s2 t05 Lost Sailor.flac:c1c3b9f2ac24b8339688ebe650a0fc4c
gd81-03-14 s2 t06 Saint Of Circumstance.flac:b3b8e7e3667d42049e653bc974f71bf0
gd81-03-14 s2 t07 Drums.flac:216ca7bc1e0fe6035ee759a8f7a850c6
gd81-03-14 s2 t08 The Other One Space.flac:fd96409d51781134e1d512cd8e3a9050
gd81-03-14 s2 t09 The Other One.flac:58dbf852d6b9cf18ad28a16de4bade1a
gd81-03-14 s2 t10 Stella Blue.flac:6faa1ed88e80e6e18ae7a3c90105553c
gd81-03-14 s2 t11 I Need A Miracle.flac:e934e992b170a737ce08e141a3973c57
gd81-03-14 s2 t12 Bertha.flac:1c7efcdb80d2e7541162ca243618f545
gd81-03-14 s2 t13 Good Lovin'.flac:53c07510741f5db7908de390f318a5ec
gd81-03-14 s2 t14 One More Saturday Night.flac:a8b3620eafc375a3d963555439195ad9

Comments
Add Comment
Other Sources (comments)
Aud (?)-> CD-> EAC-> SHN;... (3) flac16; Recorded by... (0) flac16; Recording by... (0) flac16; Recording... (0) flac24; Recording... (0) flac16; AUD: 3x... (1) flac16; Recording... (0) flac24; Cassette... (0) flac24; Source Info:... (0)
Date User Comment