Browse Collections Artists Sources   Search Dates

Add Show    List Management    Help


Grateful Dead 03/14/81
Hartford Civic Center, Hartford, CT
Comments Add Comment    Source Collectors    Add to Collection    Add to Want List    History
Source # 139797 Other Sources
Entered by Matt Vernon
Checksums ffp , flac-md5
Disc Counts 0 / 0
Media Size
Date Circulated
Date Added
11/14/2017
11/14/2017
Source Summary flac24; Source Info: Frank Streeter's Master FOB Audience Cassette; Sennheiser 421 > Sony TC-D5M (TDK MA90); Transfer Info: Cassette Master (Nakamichi CR-7A) > Tascam DA-3000 (DSF 1-bit/5.8 MHz)> KORG AudioGate 4 > Adobe Audition 3.0> TLH flac2496; Transfer by Charlie Miller; Mastered by Scott Clugston 
  Archive
Source Information - Download Text | Download Zip
Grateful Dead
Civic Center
Hartford, CT
Saturday March 14, 1981

Source Info:
Frank Streeter's Master FOB Audience Cassette; Sennheiser 421 > Sony TC-D5M (TDK MA90)

Transfer Info:
Cassette Master (Nakamichi CR-7A) > Tascam DA-3000 (DSF 1-bit/5.8 MHz)> KORG AudioGate 4 > Adobe Audition 3.0> TLH flac2496

Transfer by Charlie Miller
Mastered by Scott Clugston
11/13/17

Notes:
- Thanks to Frank Streeter for the source cassettes
- Thanks to Charlie Miller for the transfer
- Thanks to the folks responsible for shnid95288 nak700 source which provides "Me & My Uncle -> Big River", "Peggy O", "Alabama Getaway -> Greatest Story Ever Told", a 1:23 patch at the end of "Drums" and begninning of "Space", as well as "One More Saturday Night"
- Between song transitions smoothed

Set One:
s1 t01. Intro/Crowd
s1 t02. Feel Like A Stranger
s1 t03. Suagree
s1 t04. Me & My Uncle ->
s1 t05. Big River
s1 t06. Peggy O
s1 t07. CC Rider
s1 t08. Althea
s1 t09. Passenger
s1 t10. China Cat Sunflower ->
s1 t11. I Know You Rider

Set Two:
s2 t01. Tuning
s2 t02. Alabama Getaway ->
s2 t03. Greatest Story Ever Told
s2 t04. Ship Of Fools
s2 t05. Lost Sailor ->
s2 t06. Saint Of Circumstance ->
s2 t07. Drums ->
s2 t08. The Other One Space ->
s2 t09. The Other One ->
s2 t10. Stella Blue ->
s2 t11. I Need A Miracle ->
s2 t12. Bertha ->
s2 t13. Good Lovin'
Encore:
s2 t14. One More Saturday Night



    length     expanded size    cdr  WAVE problems  fmt   ratio  filename
     4:12.520     145451564 B   cxx   --   ---xx   flac  0.6735  gd81-03-14 s1 t01 Crowd.flac
     9:16.240     320394284 B   cxx   --   ---xx   flac  0.6881  gd81-03-14 s1 t02 Feel Like A Stranger.flac
    12:23.547     428282924 B   cxx   --   ---xx   flac  0.6915  gd81-03-14 s1 t03 Sugaree.flac
     2:55.413     101038124 B   cxx   --   ---xx   flac  0.7265  gd81-03-14 s1 t04 Me & My Uncle.flac
     6:19.947     218849324 B   cxx   --   ---xx   flac  0.7233  gd81-03-14 s1 t05 Big River.flac
     7:34.507     261795884 B   cxx   --   ---xx   flac  0.7147  gd81-03-14 s1 t06 Peggy O.flac
     9:13.080     318574124 B   cxx   --   ---xx   flac  0.6878  gd81-03-14 s1 t07 CC Rider.flac
     9:03.253     312913964 B   cxx   --   ---xx   flac  0.6845  gd81-03-14 s1 t08 Althea.flac
     5:32.307     191408684 B   cxx   --   ---xx   flac  0.6952  gd81-03-14 s1 t09 Passenger.flac
     5:41.240     196554284 B   cxx   --   ---xx   flac  0.6967  gd81-03-14 s1 t10 China Cat Sunflower.flac
     6:15.064     216037190 B   cxx   --   ---xx   flac  0.6973  gd81-03-14 s1 t11 I Know You Rider.flac
     1:55.333      66432044 B   cxx   --   ---xx   flac  0.7369  gd81-03-14 s2 t01 Crowd.flac
     5:11.133     179212844 B   cxx   --   ---xx   flac  0.7655  gd81-03-14 s2 t02 Alabama Getaway.flac
     4:51.280     167777324 B   cxx   --   ---xx   flac  0.7434  gd81-03-14 s2 t03 Greatest Story Ever Told.flac
     8:40.200     299635244 B   cxx   --   ---xx   flac  0.6840  gd81-03-14 s2 t04 Ship Of Fools.flac
     6:25.373     221975084 B   cxx   --   ---xx   flac  0.6851  gd81-03-14 s2 t05 Lost Sailor.flac
     6:57.333     240384044 B   cxx   --   ---xx   flac  0.6982  gd81-03-14 s2 t06 Saint Of Circumstance.flac
    12:56.760     447413804 B   cxx   --   ---xx   flac  0.6731  gd81-03-14 s2 t07 Drums.flac
     2:44.293      94633004 B   cxx   --   ---xx   flac  0.6850  gd81-03-14 s2 t08 The Other One Space.flac
     5:25.587     187537964 B   cxx   --   ---xx   flac  0.6926  gd81-03-14 s2 t09 The Other One.flac
    10:03.480     347604524 B   cxx   --   ---xx   flac  0.6801  gd81-03-14 s2 t10 Stella Blue.flac
     3:28.533     120115244 B   cxx   --   ---xx   flac  0.7056  gd81-03-14 s2 t11 I Need A Miracle.flac
     5:55.040     204503084 B   cxx   --   ---xx   flac  0.7060  gd81-03-14 s2 t12 Bertha.flac
     8:16.893     286210604 B   cxx   --   ---xx   flac  0.7029  gd81-03-14 s2 t13 Good Lovin'.flac
     5:03.169     174625610 B   cxx   --   ---xx   flac  0.7303  gd81-03-14 s2 t14 One More Saturday Night.flac
   166:21.527    5749360772 B                            0.6980  (25 files)

No errors occured.


Show Checksums
ffp
gd81-03-14 s1 t01 Crowd.flac:925b91cffc5878cc48a62614aece2b1d
gd81-03-14 s1 t02 Feel Like A Stranger.flac:27334359f159f9ee253e7c3559b7c478
gd81-03-14 s1 t03 Sugaree.flac:60234d66a9be66b0ec00322d8e583327
gd81-03-14 s1 t04 Me & My Uncle.flac:1068fb19b2c86d82e5736f1625668f0c
gd81-03-14 s1 t05 Big River.flac:ea64834d3b903f7b486ee6c85acb3ca6
gd81-03-14 s1 t06 Peggy O.flac:42a47fd7eb8d35bf49a739bfd7d38584
gd81-03-14 s1 t07 CC Rider.flac:a2ce84b641d782bbc396a907452d9ec3
gd81-03-14 s1 t08 Althea.flac:58c0721d17163557076a14229ff5b8c2
gd81-03-14 s1 t09 Passenger.flac:3b466281f214f547eb40be974606682e
gd81-03-14 s1 t10 China Cat Sunflower.flac:61dbf802581861587f57f4a49fc1ddc9
gd81-03-14 s1 t11 I Know You Rider.flac:28d35858e361f5df36b3041355463f32
gd81-03-14 s2 t01 Crowd.flac:a4fcbfb639df78285d6c638db4a5f079
gd81-03-14 s2 t02 Alabama Getaway.flac:b22fc4fea8227add96536246d76496e2
gd81-03-14 s2 t03 Greatest Story Ever Told.flac:ce716e192d2ed1fd685e3f84248d4b9a
gd81-03-14 s2 t04 Ship Of Fools.flac:db33a12a0f8d27266f6f4997171ab167
gd81-03-14 s2 t05 Lost Sailor.flac:c86c033db330a777e819b1b7f42c1ab8
gd81-03-14 s2 t06 Saint Of Circumstance.flac:f87fe6f2276854b5d87b1391014e1832
gd81-03-14 s2 t07 Drums.flac:835faaf68efa7dc52316220341a76579
gd81-03-14 s2 t08 The Other One Space.flac:f544e5e35387a5bbc13fc819342d3fdf
gd81-03-14 s2 t09 The Other One.flac:e772bbf7ecf35b9f55770db54ba93815
gd81-03-14 s2 t10 Stella Blue.flac:588eadd8c2accdc35cae11dcb22e5d31
gd81-03-14 s2 t11 I Need A Miracle.flac:e31a723beccb2c8550b600c9c5995573
gd81-03-14 s2 t12 Bertha.flac:a1f9ed7ca64e0cc69196802a0f759fcd
gd81-03-14 s2 t13 Good Lovin'.flac:134a9aaeb8cdb515987b9ecf3a0b9085
gd81-03-14 s2 t14 One More Saturday Night.flac:ed0b467abe5bd35b25ad5d8bba9e3c5d
flac-md5
0d37179ec5b643386aaf380e2c0b98e8 *gd81-03-14 s1 t01 Crowd.flac
393733b7c1546c9c07b537f54b30140f *gd81-03-14 s1 t02 Feel Like A Stranger.flac
1d85dfca2d37565bdc4e12009f0609c8 *gd81-03-14 s1 t03 Sugaree.flac
5ff38830086ab8a5ac7af6d7fff91125 *gd81-03-14 s1 t04 Me & My Uncle.flac
80980fb41e88df5cffe53a6ee0e5e338 *gd81-03-14 s1 t05 Big River.flac
389fc788621e082eeaf144683ae34f64 *gd81-03-14 s1 t06 Peggy O.flac
a03517a4ee846e68c2b73a03633b1b7f *gd81-03-14 s1 t07 CC Rider.flac
2bc15ec54589d3e8d7160c4b12d477d8 *gd81-03-14 s1 t08 Althea.flac
d4b365b7ec3175f158cda4fe4f544008 *gd81-03-14 s1 t09 Passenger.flac
16a59c5556059e6d8ede63786767258e *gd81-03-14 s1 t10 China Cat Sunflower.flac
cce90e1837b8807a53f587b7afcfbaab *gd81-03-14 s1 t11 I Know You Rider.flac
b4e169f134642b927080eccfb9bff3ac *gd81-03-14 s2 t01 Crowd.flac
5411dab5d46bb752c264d168b53fba1a *gd81-03-14 s2 t02 Alabama Getaway.flac
f081531b14a98d36395798ca75d9bde8 *gd81-03-14 s2 t03 Greatest Story Ever Told.flac
ddbf5a53e38cdc2f5922891ea3445170 *gd81-03-14 s2 t04 Ship Of Fools.flac
d6b402e1167023d8e5cac9636bc3dd63 *gd81-03-14 s2 t05 Lost Sailor.flac
f61837b616fd4f051e099294f2816982 *gd81-03-14 s2 t06 Saint Of Circumstance.flac
0194bb7d5d2fc849a1c3105fc27f3c4e *gd81-03-14 s2 t07 Drums.flac
69930f123ea927fdb0d75c522019a2ad *gd81-03-14 s2 t08 The Other One Space.flac
d85c391d056116e530cb81f25b8ee0c1 *gd81-03-14 s2 t09 The Other One.flac
6418e4df53d3c5518f22daa1c26bac49 *gd81-03-14 s2 t10 Stella Blue.flac
ab61655222b1508971af93926b836e4d *gd81-03-14 s2 t11 I Need A Miracle.flac
7eb8260250b51d7137c0ae777dec867e *gd81-03-14 s2 t12 Bertha.flac
92b34e2ae08004fc140b30a0027d0471 *gd81-03-14 s2 t13 Good Lovin'.flac
4ae61ec7b6ebcfc1d71b1b5ab485455b *gd81-03-14 s2 t14 One More Saturday Night.flac

Comments
Add Comment
Other Sources (comments)
Aud (?)-> CD-> EAC-> SHN;... (3) flac16; Recorded by... (0) flac16; Recording by... (0) flac16; Recording... (0) flac24; Recording... (0) flac16; AUD: 3x... (1) flac16; Recording... (0) flac24; Cassette... (0) flac16; Source Info:... (0)
Date User Comment