Browse Collections Artists Sources   Search Dates

Add Show    List Management    Help


Grateful Dead 03/21/81
Rainbow Theater, London, England
Comments Add Comment    Source Collectors    Add to Collection    Add to Want List    History
Source # 139798 Other Sources
Entered by Matt Vernon
Checksums ffp , flac-md5
Disc Counts 0 / 0
Media Size
Date Circulated
Date Added
11/14/2017
11/14/2017
Source Summary flac16; Source Info: Frank Streeter's Master Audience Cassette (at the soundboard); Sennheiser 421 > Sony TC-D5M (TDK MA90); Transfer Info: Cassette Master (Nakamichi CR-7A) > Tascam DA-3000 (DSF 1-bit/5.8 MHz)> KORG AudioGate 4 > Adobe Audition 3.0> TLH flac2496; Transfer by Charlie Miller; Mastered by Scott Clugston 
  Archive
Source Information - Download Text | Download Zip
Grateful Dead
Rainbow Theatre
London, England
Saturday March 21, 1981

This is a 16/44 fileset. 24 bit to 16 bit via dBpoweramp

Source Info:
Frank Streeter's Master Audience Cassette (at the soundboard); Sennheiser 421 > Sony TC-D5M (TDK MA90)

Transfer Info:
Cassette Master (Nakamichi CR-7A) > Tascam DA-3000 (DSF 1-bit/5.8 MHz)> KORG AudioGate 4 > Adobe Audition 3.0> TLH flac2496

Transfer by Charlie Miller
Mastered by Scott Clugston
11/12/17

Notes:
- Upgrade is in the transfer
- Thanks to Frank Streeter for the source cassettes
- Thanks to Charlie Miller for the transfer
- Between song transitions smoothed
- Tape flip in "Drums" has been smoothed

Set One:
s1 t01. Intro/Crowd
s1 t02. Alabama Getaway ->
s1 t03. Promised Land
s1 t04. Peggy O
s1 t05. Me & My Uncle ->
s1 t06. Big River
s1 t07. Tennessee Jed ->
s1 t08. Little Red Rooster
s1 t09. Althea
s1 t10. Let It Grow ->
s1 t11. China Cat Sunflower ->
s1 t12. I Know you Rider

Set Two:
s2 t01. Crowd/tuning
s2 t02. Jack Straw
s2 t03. Ship Of Fools
s2 t04. Estimated Prophet ->
s2 t05. Eyes Of The World ->
s2 t06. Drums ->
s2 t07. Space ->
s2 t08. Not Fade Away ->
s2 t09. Black Peter ->
s2 t10. One More Saturday Night
Encore:
s2 t11. Bob plays comedian
        Don't Ease Me In


      length     expanded size    cdr  WAVE problems  fmt   ratio  filename
     1:15.24       13286492 B   ---   --   ---xx   flac  0.5699  gd81-03-21 s1 t01 Intro_Crowd.flac
     5:27.19       57727532 B   ---   --   ---xx   flac  0.6629  gd81-03-21 s1 t02 Alabama Getaway.flac
     4:38.44       49142732 B   ---   --   ---xx   flac  0.6560  gd81-03-21 s1 t03 Promised Land.flac
     7:24.41       78418076 B   ---   --   ---xx   flac  0.5946  gd81-03-21 s1 t04 Peggy O.flac
     2:57.61       31366316 B   ---   --   ---xx   flac  0.6412  gd81-03-21 s1 t05 Me & My Uncle.flac
     5:34.11       58943516 B   ---   --   ---xx   flac  0.6504  gd81-03-21 s1 t06 Big River.flac
     8:23.36       88813916 B   ---   --   ---xx   flac  0.6322  gd81-03-21 s1 t07 Tennessee Jed.flac
     8:54.65       94350524 B   ---   --   ---xx   flac  0.6350  gd81-03-21 s1 t08 Little Red Rooster.flac
     9:42.31      102737756 B   ---   --   ---xx   flac  0.6249  gd81-03-21 s1 t09 Althea.flac
    12:37.26      133595996 B   ---   --   ---xx   flac  0.6462  gd81-03-21 s1 t10 Let It Grow.flac
     6:16.39       66418172 B   ---   --   ---xx   flac  0.6360  gd81-03-21 s1 t11 China Cat Sunflower.flac
     7:48.35       82637564 B   ---   --   ---xx   flac  0.6469  gd81-03-21 s1 t12 I Know You Rider.flac
     1:44.18       18387980 B   ---   --   ---xx   flac  0.5426  gd81-03-21 s2 t01 Crowd.flac
     5:52.32       62168108 B   ---   --   ---xx   flac  0.6478  gd81-03-21 s2 t02 Jack Straw.flac
     8:52.63       93993020 B   ---   --   ---xx   flac  0.6030  gd81-03-21 s2 t03 Ship Of Fools.flac
    11:36.65      122927324 B   ---   --   ---xx   flac  0.6539  gd81-03-21 s2 t04 Estimated Prophet.flac
    12:57.24      137119292 B   ---   --   ---xx   flac  0.6611  gd81-03-21 s2 t05 Eyes Of The World.flac
    10:41.43      113173580 B   ---   --   ---xx   flac  0.5814  gd81-03-21 s2 t06 Drums.flac
     5:48.57       61521308 B   ---   --   ---xx   flac  0.5806  gd81-03-21 s2 t07 Space.flac
    10:43.14      113458172 B   ---   --   ---xx   flac  0.6442  gd81-03-21 s2 t08 Not Fade Away.flac
     9:06.42       96413228 B   ---   --   ---xx   flac  0.5665  gd81-03-21 s2 t09 Black Peter.flac
     4:41.68       49728380 B   ---   --   ---xx   flac  0.6204  gd81-03-21 s2 t10 One More Saturday Night.flac
     3:37.05       38290604 B   ---   --   ---xx   flac  0.6450  gd81-03-21 s2 t11 Don't Ease Me In.flac
   166:43.38     1764619588 B                            0.6280  (23 files)

No errors occured.


Show Checksums
ffp
gd81-03-21 s1 t01 Intro_Crowd.flac:0799a1a75d79bc32b4b8a389c5e8abf5
gd81-03-21 s1 t02 Alabama Getaway.flac:503866aa0f84f65e91dfb5381faafff0
gd81-03-21 s1 t03 Promised Land.flac:c33ab92eb41b94cb65d877ee13842a50
gd81-03-21 s1 t04 Peggy O.flac:a2c4865dd0c34ffc55af0631f4b4cb16
gd81-03-21 s1 t05 Me & My Uncle.flac:54d910077d8fc22c84eac6dfc7cf7166
gd81-03-21 s1 t06 Big River.flac:383744554c7a79510444ff10da3e0676
gd81-03-21 s1 t07 Tennessee Jed.flac:a4ef8baa13ed804ea78bda3c344b0964
gd81-03-21 s1 t08 Little Red Rooster.flac:1c9603d4ca0b724c9817da5249afc7e2
gd81-03-21 s1 t09 Althea.flac:0449f30d9f160bf675a025c606c7d703
gd81-03-21 s1 t10 Let It Grow.flac:3bfc119e4b035694af3415221f639679
gd81-03-21 s1 t11 China Cat Sunflower.flac:81102f4276d218b1fc103554d1c0e41a
gd81-03-21 s1 t12 I Know You Rider.flac:c9b01424f8a768d2baa2ea744ab49fc1
gd81-03-21 s2 t01 Crowd.flac:f20bc52e36e3269b8785d21c30c079af
gd81-03-21 s2 t02 Jack Straw.flac:7f4b3f1084030ca4a95020b926de6571
gd81-03-21 s2 t03 Ship Of Fools.flac:b616b59fecc975b06582b872254d64b2
gd81-03-21 s2 t04 Estimated Prophet.flac:5b7969f5c38b7a017fd3b941b5c4856f
gd81-03-21 s2 t05 Eyes Of The World.flac:6f922a34c100afb5878bf71933e02081
gd81-03-21 s2 t06 Drums.flac:a947e11ad62e4f6f59b7a4bb0dc19ed4
gd81-03-21 s2 t07 Space.flac:8e25b7de4685b75ee4477787cb831d4c
gd81-03-21 s2 t08 Not Fade Away.flac:2053d868c9f1789c173f6c453abf51b3
gd81-03-21 s2 t09 Black Peter.flac:47316c4933f8717b3852502de9908411
gd81-03-21 s2 t10 One More Saturday Night.flac:1c50267f6724cbc0ddd953e5039d0ec4
gd81-03-21 s2 t11 Don't Ease Me In.flac:24e63cbf0ba87a4eafed44d58d622c97
flac-md5
45f466d290868e0fa49fea3f87e005b8 *gd81-03-21 s1 t01 Intro_Crowd.flac
05773bb42bd762f4f7d5829a1a2bf98e *gd81-03-21 s1 t02 Alabama Getaway.flac
a1ffda51bb4ec8f6b8fce021cb0a5c5a *gd81-03-21 s1 t03 Promised Land.flac
31b221ac98a619774d52d208463e512a *gd81-03-21 s1 t04 Peggy O.flac
0c55eb9697971fbfa18f3615887f7d1f *gd81-03-21 s1 t05 Me & My Uncle.flac
e807bf1e03785c0f547d949e5083f049 *gd81-03-21 s1 t06 Big River.flac
8db07dae9b7ba67b6a41983cdbfa2519 *gd81-03-21 s1 t07 Tennessee Jed.flac
58230e440a54f623dfe33e35220d7e8c *gd81-03-21 s1 t08 Little Red Rooster.flac
f1abc84a7adbbf8304f2c11d7cd8d08a *gd81-03-21 s1 t09 Althea.flac
2c0b2effa743bdcbeb83d541861b3aff *gd81-03-21 s1 t10 Let It Grow.flac
a4bd97ea06e4abe6c62b97afae113a64 *gd81-03-21 s1 t11 China Cat Sunflower.flac
b48ac0150c5e87b82ce69a1eb6285e76 *gd81-03-21 s1 t12 I Know You Rider.flac
7babbdeee2b9fdf61cf6aa2556d8339c *gd81-03-21 s2 t01 Crowd.flac
c3d1091ff2a8347ab8128282cae1f39a *gd81-03-21 s2 t02 Jack Straw.flac
c330c7eb78d2a40a4cc2a8b0b150f72f *gd81-03-21 s2 t03 Ship Of Fools.flac
3af21e7dd6748083ab04df53fc8f2106 *gd81-03-21 s2 t04 Estimated Prophet.flac
5a9752738b72844e2f8805c70cda252b *gd81-03-21 s2 t05 Eyes Of The World.flac
abd4fd58413bb7cb693298b421a2ecaf *gd81-03-21 s2 t06 Drums.flac
3894e6d5606d7024b1cd371932117bf3 *gd81-03-21 s2 t07 Space.flac
2d019906508c5b0c19ffe74e176de31f *gd81-03-21 s2 t08 Not Fade Away.flac
c49569df6ec07284de2832832a48be81 *gd81-03-21 s2 t09 Black Peter.flac
422e025098f9ef323a7e6aecbb0ed14d *gd81-03-21 s2 t10 One More Saturday Night.flac
32c12af30a9e1dfd1bcc057fd9d918f5 *gd81-03-21 s2 t11 Don't Ease Me In.flac

Comments
Add Comment
Other Sources (comments)
Senn 421's> Sony TC-D5... (1) Master Soundboard Cassette... (4) SBD:MC> Cass> CD, with AUD... (1) AUD > MC > C > Nakamishi... (0) flac16; Set II... (1) flac16; Recording... (0) flac16; SBD/AUD -... (1) flac24; Source Info:... (0)
Date User Comment