Browse Collections Artists Sources   Search Dates

Add Show    List Management    Help


Grateful Dead 03/21/81
Rainbow Theater, London, England
Comments Add Comment    Source Collectors    Add to Collection    Add to Want List    History
Source # 139799 Other Sources
Entered by Matt Vernon
Checksums ffp , flac-md5
Disc Counts 0 / 0
Media Size
Date Circulated
Date Added
11/14/2017
11/14/2017
Source Summary flac24; Source Info: Frank Streeter's Master Audience Cassette (at the soundboard); Sennheiser 421 > Sony TC-D5M (TDK MA90); Transfer Info: Cassette Master (Nakamichi CR-7A) > Tascam DA-3000 (DSF 1-bit/5.8 MHz)> KORG AudioGate 4 > Adobe Audition 3.0> TLH flac2496; Transfer by Charlie Miller; Mastered by Scott Clugston 
  Archive
Source Information - Download Text | Download Zip
Grateful Dead
Rainbow Theatre
London, England
Saturday March 21, 1981

Source Info:
Frank Streeter's Master Audience Cassette (at the soundboard); Sennheiser 421 > Sony TC-D5M (TDK MA90)

Transfer Info:
Cassette Master (Nakamichi CR-7A) > Tascam DA-3000 (DSF 1-bit/5.8 MHz)> KORG AudioGate 4 > Adobe Audition 3.0> TLH flac2496

Transfer by Charlie Miller
Mastered by Scott Clugston
11/12/17

Notes:
- Upgrade is in the transfer
- Thanks to Frank Streeter for the source cassettes
- Thanks to Charlie Miller for the transfer
- Between song transitions smoothed
- Tape flip in "Drums" has been smoothed

Set One:
s1 t01. Intro/Crowd
s1 t02. Alabama Getaway ->
s1 t03. Promised Land
s1 t04. Peggy O
s1 t05. Me & My Uncle ->
s1 t06. Big River
s1 t07. Tennessee Jed
s1 t08. Little Red Rooster
s1 t09. Althea
s1 t10. Let It Grow ->
s1 t11. China Cat Sunflower ->
s1 t12. I Know you Rider

Set Two:
s2 t01. Crowd/tuning
s2 t02. Jack Straw
s2 t03. Ship Of Fools
s2 t04. Estimated Prophet ->
s2 t05. Eyes Of The World ->
s2 t06. Drums ->
s2 t07. Space ->
s2 t08. Not Fade Away ->
s2 t09. Black Peter ->
s2 t10. One More Saturday Night
Encore:
s2 t11. Bob plays comedian
        Don't Ease Me In



     length     expanded size    cdr  WAVE problems  fmt   ratio  filename
     1:15.320      43384364 B   cxx   --   ---xx   flac  0.6586  gd81-03-21 s1 t01 Intro_Crowd.flac
     5:27.253     188497964 B   cxx   --   ---xx   flac  0.6967  gd81-03-21 s1 t02 Alabama Getaway.flac
     4:38.587     160465964 B   cxx   --   ---xx   flac  0.6964  gd81-03-21 s1 t03 Promised Land.flac
     7:24.547     256058924 B   cxx   --   ---xx   flac  0.6702  gd81-03-21 s1 t04 Peggy O.flac
     2:57.813     102420524 B   cxx   --   ---xx   flac  0.6869  gd81-03-21 s1 t05 Me & My Uncle.flac
     5:34.147     192468524 B   cxx   --   ---xx   flac  0.6905  gd81-03-21 s1 t06 Big River.flac
     8:23.480     290004524 B   cxx   --   ---xx   flac  0.6839  gd81-03-21 s1 t07 Tennessee Jed.flac
     8:54.867     308083244 B   cxx   --   ---xx   flac  0.6858  gd81-03-21 s1 t08 Little Red Rooster.flac
     9:42.413     335470124 B   cxx   --   ---xx   flac  0.6795  gd81-03-21 s1 t09 Althea.flac
    12:37.347     436231724 B   cxx   --   ---xx   flac  0.6871  gd81-03-21 s1 t10 Let It Grow.flac
     6:16.520     216875564 B   cxx   --   ---xx   flac  0.6831  gd81-03-21 s1 t11 China Cat Sunflower.flac
     7:48.478     269843306 B   cxx   --   ---xx   flac  0.6881  gd81-03-21 s1 t12 I Know You Rider.flac
     1:44.240      60042284 B   cxx   --   ---xx   flac  0.6552  gd81-03-21 s2 t01 Crowd.flac
     5:52.427     202997804 B   cxx   --   ---xx   flac  0.6896  gd81-03-21 s2 t02 Jack Straw.flac
     8:52.840     306915884 B   cxx   --   ---xx   flac  0.6739  gd81-03-21 s2 t03 Ship Of Fools.flac
    11:36.867     401395244 B   cxx   --   ---xx   flac  0.6912  gd81-03-21 s2 t04 Estimated Prophet.flac
    12:57.320     447736364 B   cxx   --   ---xx   flac  0.6930  gd81-03-21 s2 t05 Eyes Of The World.flac
    10:41.573     369546284 B   cxx   --   ---xx   flac  0.6636  gd81-03-21 s2 t06 Drums.flac
     5:48.760     200885804 B   cxx   --   ---xx   flac  0.6640  gd81-03-21 s2 t07 Space.flac
    10:43.187     370475564 B   cxx   --   ---xx   flac  0.6847  gd81-03-21 s2 t08 Not Fade Away.flac
     9:06.560     314818604 B   cxx   --   ---xx   flac  0.5849  gd81-03-21 s2 t09 Black Peter.flac
     4:41.907     162378284 B   cxx   --   ---xx   flac  0.6201  gd81-03-21 s2 t10 One More Saturday Night.flac
     3:37.045     125017682 B   cxx   --   ---xx   flac  0.6896  gd81-03-21 s2 t11 Don't Ease Me In.flac
   166:43.496    5762014552 B                            0.6760  (23 files)

No errors occured.


Show Checksums
ffp
gd81-03-21 s1 t01 Intro_Crowd.flac:bdfb858e6bfaa223187cafb499322ab3
gd81-03-21 s1 t02 Alabama Getaway.flac:f20e1b5fe89187b00609b6c6287f6c50
gd81-03-21 s1 t03 Promised Land.flac:f183e40b056c573418d4f43fea7d9d58
gd81-03-21 s1 t04 Peggy O.flac:2b013cc35f454457f78cbe3253032e64
gd81-03-21 s1 t05 Me & My Uncle.flac:5888712f5e92ccbef449264b8f738870
gd81-03-21 s1 t06 Big River.flac:f05509a7a2f4caccb79fa8ffc8c26158
gd81-03-21 s1 t07 Tennessee Jed.flac:570283a2107663cbae2141bae949bbe5
gd81-03-21 s1 t08 Little Red Rooster.flac:504386395bf693d89938982eeaf8fb10
gd81-03-21 s1 t09 Althea.flac:3615994ee4daef7f45d5046a4ed994a1
gd81-03-21 s1 t10 Let It Grow.flac:7c2dc0812b5a6f5e394f0121ec98017e
gd81-03-21 s1 t11 China Cat Sunflower.flac:5fcc5d456a98cb9e57ffc96f3c73005a
gd81-03-21 s1 t12 I Know You Rider.flac:4f4b70ee3cd6e11d538bd8ef6a9bfc18
gd81-03-21 s2 t01 Crowd.flac:1195ff7b4dd6e4d5cddd326478599c71
gd81-03-21 s2 t02 Jack Straw.flac:53354d81bd989b34529f3c15f61c0238
gd81-03-21 s2 t03 Ship Of Fools.flac:c7ae4f7a19618dcbc61d76e779dccfe7
gd81-03-21 s2 t04 Estimated Prophet.flac:46776d1a0bafda30e315cbeced869108
gd81-03-21 s2 t05 Eyes Of The World.flac:1f96e47b8a0938de5c2300690c121f77
gd81-03-21 s2 t06 Drums.flac:ceb52eb9f27c39715aae242d2fc50d93
gd81-03-21 s2 t07 Space.flac:857393f0c5d97a9a1bb43789b326563e
gd81-03-21 s2 t08 Not Fade Away.flac:a63e5f605990253e9e1e0ed78db0022c
gd81-03-21 s2 t09 Black Peter.flac:0db1790008ad4804f3bb9d6e1419b295
gd81-03-21 s2 t10 One More Saturday Night.flac:14d6a9cd52876c5d541183951ccab71d
gd81-03-21 s2 t11 Don't Ease Me In.flac:66437f315ee8b4e89db278a52fc52537
flac-md5
c028a9447a9d463028e6f6f069957886 *gd81-03-21 s1 t01 Intro_Crowd.flac
168eef58ad826607fcec8a59181d03cc *gd81-03-21 s1 t02 Alabama Getaway.flac
4d598a70df88ab6fbd6cc32989c2bf58 *gd81-03-21 s1 t03 Promised Land.flac
bde82fa4cdf4fa42f65bbcdd2748fef6 *gd81-03-21 s1 t04 Peggy O.flac
814ae01de24040141d3676ed1526651b *gd81-03-21 s1 t05 Me & My Uncle.flac
e965f37ee12ce894c50279c66cf03149 *gd81-03-21 s1 t06 Big River.flac
8d800a3a919d273f46627a96f39a2a53 *gd81-03-21 s1 t07 Tennessee Jed.flac
cefb062d531c7a77ca92b9b9f3e67db9 *gd81-03-21 s1 t08 Little Red Rooster.flac
65aaee5de5efc77f12522ed590ee9bee *gd81-03-21 s1 t09 Althea.flac
357e82a19d91902ff8904b45b0f3935c *gd81-03-21 s1 t10 Let It Grow.flac
e89aeeac513e193d20357c699c1ccd66 *gd81-03-21 s1 t11 China Cat Sunflower.flac
5ea081717d1f34c9bddac06d054602ae *gd81-03-21 s1 t12 I Know You Rider.flac
e1060ff69e8aea36e7186b941eef6aad *gd81-03-21 s2 t01 Crowd.flac
512dadb4561e7abb80737132e95b11a1 *gd81-03-21 s2 t02 Jack Straw.flac
e154e2904d7031400fea92a4d56a2996 *gd81-03-21 s2 t03 Ship Of Fools.flac
76ece38db8a5a077cfd3f684152cdcb3 *gd81-03-21 s2 t04 Estimated Prophet.flac
c1bbc77051cf903b781fb71ee0d22f51 *gd81-03-21 s2 t05 Eyes Of The World.flac
073550e691ccc310b4fcb47dfeb2f0e3 *gd81-03-21 s2 t06 Drums.flac
572d92824853d3ce824680912caf019f *gd81-03-21 s2 t07 Space.flac
886d8760bfcff24441b165a52e233bfb *gd81-03-21 s2 t08 Not Fade Away.flac
b6328be54eb4ac5ef882faf35cd681e3 *gd81-03-21 s2 t09 Black Peter.flac
da129c7031a20c90979ef3b70b63239c *gd81-03-21 s2 t10 One More Saturday Night.flac
64f14ae9102bf02a048f1a1544963836 *gd81-03-21 s2 t11 Don't Ease Me In.flac

Comments
Add Comment
Other Sources (comments)
Senn 421's> Sony TC-D5... (1) Master Soundboard Cassette... (4) SBD:MC> Cass> CD, with AUD... (1) AUD > MC > C > Nakamishi... (0) flac16; Set II... (1) flac16; Recording... (0) flac16; SBD/AUD -... (1) flac16; Source Info:... (0)
Date User Comment