Browse Collections Artists Sources   Search Dates

Add Show    List Management    Help


Grateful Dead 02/12/89
Great Western LA Forum, Inglewood, CA
Comments Add Comment    Source Collectors    Add to Collection    Add to Want List    History
Source # 139800 Other Sources
Entered by Matt Vernon
Checksums flac-md5 , ffp
Disc Counts 0 / 0
Media Size
Date Circulated
Date Added
11/14/2017
11/14/2017
Source Summary flac16; Set 1 Source Info: (FOB) Audience PCM; Schoeps CMC4/MK4 > Sony PCM-F1 > Dat (16/44); Transfer Info: Sony PCM-R500 > Tascam DA-3000 > Adobe Audition 3.0 > TLH flac16 
  Archive
Source Information - Download Text | Download Zip
Grateful Dead
Great Western Forum
Inglewood, CA
Sunday February 12, 1989

Source Info:
(FOB) Audience PCM; Schoeps CMC4/MK4 > Sony PCM-F1 > Dat (16/44)

Transfer Info:
Sony PCM-R500 > Tascam DA-3000 > Adobe Audition 3.0 > TLH flac16

Notes:
- Recorded by Robert Bryant (patched out of the Oade brothers)
- Thanks to Rich Gastwirt for the source Dat
- Thanks to Charlie Miller for the transfer
- "How Long Blues" and "Gimme Some Lovin'" with Spencer Davis
- 2nd Set MIA

Transfer by Charlie Miller
Mastered by Scott Clugston
11/13/17

Set 1:
s1 t01. Cold Rain & Snow ->
s1 t02. Hell In A Bucket
s1 t03. Row Jimmy
s1 t04. Beat  It On Down The Line ->
s1 t05. Promised Land
s1 t06. West LA Fadeaway
s1 t07. Spencer Davis Intro
        How Long Blues
s1 t08. Gimme Some Lovin'


    length     expanded size    cdr  WAVE problems  fmt   ratio  filename
     5:50.40       61834124 B   ---   --   ---xx   flac  0.5694  gd89-02-12 s1 t01 Cold Rain & Snow.flac
     9:17.10       98278364 B   ---   --   ---xx   flac  0.5461  gd89-02-12 s1 t02 Hell In A Bucket.flac
    12:12.53      129249500 B   ---   --   ---xx   flac  0.4970  gd89-02-12 s1 t03 Row Jimmy.flac
     3:16.49       34689692 B   ---   --   ---xx   flac  0.5856  gd89-02-12 s1 t04 Beat It On Down The Line.flac
     5:45.05       60869804 B   ---   --   ---xx   flac  0.5510  gd89-02-12 s1 t05 Promised Land.flac
     7:34.71       80252636 B   ---   --   ---xx   flac  0.5413  gd89-02-12 s1 t06 West LA Fadeaway.flac
     5:49.05       61575404 B   ---   --   ---xx   flac  0.5556  gd89-02-12 s1 t07 How Long Blues.flac
     8:09.57       86393708 B   ---   --   ---xx   flac  0.5932  gd89-02-12 s1 t08 Gimme Some Lovin'.flac
    57:55.65      613143232 B                            0.5478  (8 files)

No errors occured.


Show Checksums
flac-md5
0de90b247c2de72ea537ead72e1f70b2 *gd89-02-12 s1 t01 Cold Rain & Snow.flac
c007deae391ef86f092eb76d1124e2b9 *gd89-02-12 s1 t02 Hell In A Bucket.flac
f3ecac918211e2739d35ea585cc040a2 *gd89-02-12 s1 t03 Row Jimmy.flac
bbfe4289a756612fa52a6ed086e5c06f *gd89-02-12 s1 t04 Beat It On Down The Line.flac
ecd3a7f6e5d02fc293ae71413c36311d *gd89-02-12 s1 t05 Promised Land.flac
ed4ae85483e376e57b2df90cb70ba675 *gd89-02-12 s1 t06 West LA Fadeaway.flac
3004c7a46b0b388b95e666718f97b780 *gd89-02-12 s1 t07 How Long Blues.flac
7cfe3198098ebde42693975465f4a6ab *gd89-02-12 s1 t08 Gimme Some Lovin'.flac
ffp
gd89-02-12 s1 t01 Cold Rain & Snow.flac:e7a3f2a5ea6fd8c827ff4fa8fddb50ee
gd89-02-12 s1 t02 Hell In A Bucket.flac:054129e5ed901e6874863ff93e1a5ab6
gd89-02-12 s1 t03 Row Jimmy.flac:a7972d6e97f6dcf2a704270e8029029b
gd89-02-12 s1 t04 Beat It On Down The Line.flac:b3865847297f28ef9752b66c416c5438
gd89-02-12 s1 t05 Promised Land.flac:571ab422d1fe88a2ac9aedb0aa75667b
gd89-02-12 s1 t06 West LA Fadeaway.flac:112c34f00a50e6895781ea333c8143cc
gd89-02-12 s1 t07 How Long Blues.flac:45d9be69399f896922b5e39e1ca7dce6
gd89-02-12 s1 t08 Gimme Some Lovin'.flac:f24d46c3cc314a3dc18b5dace89c12d4

Comments
Add Comment
Other Sources (comments)
SBD; via Mike Lai (2) SBD> MC> DAT> CD> SHN (5) flac24; Sean Weber... (0) flac16; Sean Weber... (1) flac16; Recording... (0) flac16; AT835B's- AT... (0) flac24; Recording... (0) flac16; Recording... (0) flac16; Matrix 2... (0) DTS-Audio-CD 5.1... (0) flac16/48kHz; 5.1... (0) flac16; Recording... (0)
Date User Comment