Browse Collections Artists Sources   Search Dates

Add Show    List Management    Help


Grateful Dead 03/29/87
The Spectrum, Philadelphia, PA
Comments Add Comment    Source Collectors    Add to Collection    Add to Want List    History
Source # 139803 Other Sources
Entered by Matt Vernon
Checksums flac-md5 , ffp
Disc Counts 0 / 0
Media Size Compressed: 912.03 MB (956329984 bytes)
Date Circulated
Date Added
11/14/2017
11/14/2017
Source Summary flac16; Recording Info: Ultra Matrix SBD > Cassette Master (TDK MA-R90); Transfer Info: Cassette Master (Nakamichi CR-7A) > Tascam DA-3000 (DSF 1-bit/5.8 MHz) > KORG AudioGate 4 > Samplitude Pro X3 Suite > FLAC/24; All Transfers and Mastering By Charlie Miller 
  Archive
Source Information - Download Text | Download Zip
Grateful Dead - March 29, 1987
The Spectrum - Philadelphia, PA

Recording Info:
Ultra Matrix SBD > Cassette Master (TDK MA-R90)

Transfer Info:
Cassette Master (Nakamichi CR-7A) > Tascam DA-3000 (DSF 1-bit/5.8 MHz) >
KORG AudioGate 4 > Samplitude Pro X3 Suite > FLAC/24
(1 Disc FLAC)

All Transfers and Mastering By Charlie Miller
[email protected]
September 12, 2017

Notes:
-- Two sets of masters were used to make this show complete
-- This fileset is 16 bit

Set 1:
01 - Tuning
02 - Hell In A Bucket >
03 - Bertha >
04 - Little Red Rooster
05 - Far From Me
06 - Friend Of The Devil >
07 - El Paso
08 - When Push Comes To Shove
09 - Let It Grow

Set 2:
10 - Tuning
11 - Mississippi Half-Step Uptown Toodeloo >
12 - Playing In The Band >
13 - China Doll >
14 - Man Smart (Woman Smarter) >
15 - Drums >
16 - Space >
17 - The Wheel >
18 - Goin' Down The Road Feeling Bad >
19 - Playing In The Band >
20 - Black Muddy River >
21 - Sugar Magnolia

Encore:
22 - Encore Break
23 - The Mighty Quinn (Quinn The Eskimo)


SHNTOOL OUTPUT:
    length     expanded size    cdr  WAVE problems  fmt   ratio  filename
     1:36.29       17002652 B   ---   --   ---xx   flac  0.5732  01 Tuning.flac
     5:37.03       59453900 B   ---   --   ---xx   flac  0.6553  02 Hell In A Bucket.flac
     7:11.66       76183676 B   ---   --   ---xx   flac  0.6415  03 Bertha.flac
     9:09.55       96973004 B   ---   --   ---xx   flac  0.6129  04 Little Red Rooster.flac
     4:48.21       50852636 B   ---   --   ---xx   flac  0.6472  05 Far From Me.flac
     8:09.44       86363132 B   ---   --   ---xx   flac  0.6138  06 Friend Of The Devil.flac
     5:34.67       59075228 B   ---   --   ---xx   flac  0.6251  07 El Paso.flac
     6:00.10       63527564 B   ---   --   ---xx   flac  0.6187  08 When Push Comes To Shove.flac
    13:06.68      138810380 B   ---   --   ---xx   flac  0.6365  09 Let It Grow.flac
     1:12.59       12839612 B   ---   --   ---xx   flac  0.5063  10 Tuning.flac
     7:47.71       82545836 B   ---   --   ---xx   flac  0.6250  11 Mississippi Half-Step Uptown Toodleoo.flac
    10:14.34      108389612 B   ---   --   ---xx   flac  0.6290  12 Playing In The Band.flac
     6:39.34       70463612 B   ---   --   ---xx   flac  0.6116  13 China Doll.flac
     7:22.28       78034700 B   ---   --   ---xx   flac  0.6643  14 Man Smart (Woman Smarter).flac
     7:03.08       74636060 B   ---   --   ---xx   flac  0.5787  15 Drums.flac
     7:49.09       82752812 B   ---   --   ---xx   flac  0.4909  16 Space.flac
     7:01.30       74335004 B   ---   --   ---xx   flac  0.5896  17 The Wheel.flac
     6:15.54       66277052 B   ---   --   ---xx   flac  0.6400  18 Goin' Down The Road Feeling Bad.flac
     3:16.46       34682636 B   ---   --   ---xx   flac  0.6032  19 Playing In The Band.flac
     5:58.40       63245324 B   ---   --   ---xx   flac  0.5969  20 Black Muddy River.flac
     8:51.55       93797804 B   ---   --   ---xx   flac  0.6490  21 Sugar Magnolia.flac
     0:41.55        7361804 B   ---   --   ---xx   flac  0.5603  22 Encore Break.flac
     5:08.63       54479420 B   ---   --   ---xx   flac  0.6210  23 The Mighty Quinn (Quinn The Eskimo).flac
   146:38.49     1552083460 B                            0.6161  (23 files)



Show Checksums
flac-md5
85032b8733f918dc0ab36d995caf186a *01 Tuning.flac
0fa3e9aac56369d5f58ff0145e85638e *02 Hell In A Bucket.flac
f6c8421ff18203fa543c81de75105841 *03 Bertha.flac
db43af950d75d3e7baf08f037242a5cc *04 Little Red Rooster.flac
e2bc1ddb8d883dfb8d87450810968458 *05 Far From Me.flac
0eb4f7427d9b8509dd0c8c225f0455dc *06 Friend Of The Devil.flac
6dea3189130688170f4a6ab016370636 *07 El Paso.flac
f04ce4e89c18963bf5453ba9e571aa80 *08 When Push Comes To Shove.flac
7efbd5ff41417a8af58fd4b9516506bc *09 Let It Grow.flac
169c70797a588397155d06bd06ebcd8b *10 Tuning.flac
46a6550468edca3b33d34e89e8157dcb *11 Mississippi Half-Step Uptown Toodleoo.flac
dd3c6011032376b15f869bac9d404919 *12 Playing In The Band.flac
681fc796576fdda44a5e8c959cc3bdd9 *13 China Doll.flac
5b692857020d8855fb6c56ec0a98fc4e *14 Man Smart (Woman Smarter).flac
2771e8aa5f97e2f4efaa6ec7ab10acbf *15 Drums.flac
0d648af4cb71254e18adeff178f9a761 *16 Space.flac
56514c55d8332f9eb5373c3c7179e307 *17 The Wheel.flac
a23f0edda14c86f5c0ae591b1c453779 *18 Goin' Down The Road Feeling Bad.flac
79a1f125f4aab8137ca5109b176c6095 *19 Playing In The Band.flac
b9c1d933a814baa479ce3633294d52d1 *20 Black Muddy River.flac
c188b2215fe2c44b1bd47cb7c72f676a *21 Sugar Magnolia.flac
f9e028e1db89a26de33ffbe3d423b8c3 *22 Encore Break.flac
f8de8847da9515b198f779263576426f *23 The Mighty Quinn (Quinn The Eskimo).flac
ffp
01 Tuning.flac:2349d6b8c554a5119169d9c0697afbac
02 Hell In A Bucket.flac:d454d1721181e34773ba8337c6418db9
03 Bertha.flac:60c5a21e2fbbbe66b56d00ba31635316
04 Little Red Rooster.flac:f6b81075f4050c0c712ecefbdcfee8a8
05 Far From Me.flac:6ed7bc55b7b54186789221917e5a0cf3
06 Friend Of The Devil.flac:bcf4011963cda724e401d376d5c1d925
07 El Paso.flac:47db8cedc6acfac33506de31eef7acf3
08 When Push Comes To Shove.flac:4524536d608d03a10bd1b07a6e1b9e39
09 Let It Grow.flac:52100acf3cf20c56811aabb90a3a5bcb
10 Tuning.flac:2095e1a4ea63f74b70ede2a8d6443fcd
11 Mississippi Half-Step Uptown Toodleoo.flac:ba6d79a983aeabc93025d414cd0e804a
12 Playing In The Band.flac:0ad09d2c169b113d7a1a7277e65a4ab2
13 China Doll.flac:c5054f299b89e3aa5b5638cb9ade064d
14 Man Smart (Woman Smarter).flac:2474731d2bc12a0b7c485ae469ec2d10
15 Drums.flac:a8d8a44a2252ea01db8025bdb53c2e29
16 Space.flac:faf7570d87525698aeed11e0e8e69eed
17 The Wheel.flac:93708049e6ce1fb8302d49e95791ead8
18 Goin' Down The Road Feeling Bad.flac:a6a4d815b87002db9fc9564bc17f0ebf
19 Playing In The Band.flac:3c27868ccfef8d73b7b665b7a3d50800
20 Black Muddy River.flac:584c3019a707b544520812427e335e47
21 Sugar Magnolia.flac:eb550be9b79e67c0cd139acdc91e7f17
22 Encore Break.flac:68caaabd8d66005abdf0863685077495
23 The Mighty Quinn (Quinn The Eskimo).flac:3ad8b8318ab014321008fcbbef94d509

Comments
Add Comment
Other Sources (comments)
Audience Master Cassette... (1) flac16; Source: AUD,... (0) flac16; Source:... (0) flac16; taper : Joe... (0) flac16; Master:... (0) flac16; Source: 2... (0) flac24; source:... (0) flac16; Robert... (1) flac24; Recording... (0)
Date User Comment