Browse Collections Artists Sources   Search Dates

Add Show    List Management    Help


Grateful Dead 03/31/87
The Spectrum, Philadelphia, PA
Comments Add Comment    Source Collectors    Add to Collection    Add to Want List    History
Source # 139806 Other Sources
Entered by Matt Vernon
Checksums flac-md5 , ffp
Disc Counts 0 / 0
Media Size Compressed: 938.14 MB (983707648 bytes)
Date Circulated
Date Added
11/14/2017
11/14/2017
Source Summary flac16; Recording Info: Ultra Matrix SBD > Cassette Master (TDK MA-R90); Transfer Info: Cassette Master (Nakamichi CR-7A) > Tascam DA-3000 (DSF 1-bit/5.8 MHz) > KORG AudioGate 4 > Adobe Audition CC 2015 > Samplitude Pro X3 Suite > FLAC/24; All Transfers and Mastering By Charlie Miller 
  Archive
Source Information - Download Text | Download Zip
Grateful Dead - March 31, 1987
The Spectrum - Philadelphia, PA

Recording Info:
Ultra Matrix SBD > Cassette Master (TDK MA-R90)

Transfer Info:
Cassette Master (Nakamichi CR-7A) > Tascam DA-3000 (DSF 1-bit/5.8 MHz) >
KORG AudioGate 4 > Adobe Audition CC 2015 > Samplitude Pro X3 Suite > FLAC/24
(1 Disc FLAC)

All Transfers and Mastering By Charlie Miller
[email protected]
September 12, 2017

Notes:
-- Two sets of masters were used to make this show complete
-- This is a special mix done for the WMMR broadcast
-- Dan Healy requested that the DJ's be on the recording
-- this is 16 bit

Set 1:
01 - Tuning
02 - Jack Straw >
03 - Franklin's Tower
04 - C.C. Rider
05 - Ramble On Rose
06 - Tons Of Steel
07 - Mama Tried >
08 - Big River
09 - Candyman
10 - Desolation Row >
11 - Don't Ease Me In

Set 2:
12 - Touch Of Grey
13 - Estimated Prophet >
14 - Terrapin Station >
15 - Drums >
16 - Space >
17 - Uncle John's Band >
18 - I Need A Miracle >
19 - Stella Blue >
20 - Around And Around >
21 - Turn On Your Lovelight

Encore:
22 - Encore Break
23 - Brokedown Palace


SHNTOOL OUTPUT:
    length     expanded size    cdr  WAVE problems  fmt   ratio  filename
     4:10.31       44172956 B   ---   --   ---xx   flac  0.5841  01 Tuning.flac
     5:11.50       54978044 B   ---   --   ---xx   flac  0.6471  02 Jack Straw.flac
     7:19.18       77481980 B   ---   --   ---xx   flac  0.6501  03 Franklin's Tower.flac
     9:18.18       98473580 B   ---   --   ---xx   flac  0.6128  04 CC Rider.flac
     8:38.58       91511660 B   ---   --   ---xx   flac  0.6120  05 Ramble On Rose.flac
     5:18.02       56099948 B   ---   --   ---xx   flac  0.6544  06 Tons Of Steel.flac
     2:35.08       27360860 B   ---   --   ---xx   flac  0.6483  07 Mama Tried.flac
     6:23.54       67688252 B   ---   --   ---xx   flac  0.6468  08 Big River.flac
     7:08.11       75525116 B   ---   --   ---xx   flac  0.6005  09 Candyman.flac
    10:11.12      107808668 B   ---   --   ---xx   flac  0.6122  10 Desolation Row.flac
     3:44.45       39619484 B   ---   --   ---xx   flac  0.6383  11 Don't Ease Me In.flac
     6:41.28       70802300 B   ---   --   ---xx   flac  0.6423  12 Touch Of Grey.flac
    10:54.48      115478540 B   ---   --   ---xx   flac  0.6308  13 Estimated Prophet.flac
    11:29.59      121678412 B   ---   --   ---xx   flac  0.6106  14 Terrapin Station.flac
    10:31.26      111369596 B   ---   --   ---xx   flac  0.5515  15 Drums.flac
     6:38.58       70343660 B   ---   --   ---xx   flac  0.5024  16 Space.flac
     7:18.16       77300876 B   ---   --   ---xx   flac  0.6227  17 Uncle John's Band.flac
     3:42.42       39259628 B   ---   --   ---xx   flac  0.6417  18 I Need A Miracle.flac
     8:14.09       87162812 B   ---   --   ---xx   flac  0.5783  19 Stella Blue.flac
     3:43.45       39443084 B   ---   --   ---xx   flac  0.6204  20 Around And Around.flac
     5:18.18       56137580 B   ---   --   ---xx   flac  0.6252  21 Turn On Your Lovelight.flac
     1:38.17       17327228 B   ---   --   ---xx   flac  0.5615  22 Encore Break.flac
     6:04.46       64317836 B   ---   --   ---xx   flac  0.5952  23 Brokedown Palace.flac
   152:14.44     1611342100 B                            0.6105  (23 files)



Show Checksums
flac-md5
30af2e8befa3b5e71e62e8515cf424b2 *01 Tuning.flac
c618c15f6201f4f63f8d4287e034e94d *02 Jack Straw.flac
f295a250d9aa5d797c84bdda13fca6f9 *03 Franklin's Tower.flac
38cce8cc108fb085521b2ddd034b4648 *04 CC Rider.flac
4031b157cf291bb6c440e0aab1f545c3 *05 Ramble On Rose.flac
84661107e2fd108bd73fc9a0315cd72b *06 Tons Of Steel.flac
85609c4b0bd3c197b5f12b143e892ec7 *07 Mama Tried.flac
ed5a8a00f385647e94945bcab5499329 *08 Big River.flac
9eeeb2563d21a4c0e7a4f44d4345cf72 *09 Candyman.flac
780299e286798d2734681653ba20b61d *10 Desolation Row.flac
e288237b0ea276ac6edd3cffd4aa6a86 *11 Don't Ease Me In.flac
eb0e56aecdb0c74ed6cfb4c0bd90e27c *12 Touch Of Grey.flac
391ff26c87c4fab6e8d81b70aea030eb *13 Estimated Prophet.flac
c41d59be130ce9968054011b7095cbef *14 Terrapin Station.flac
939fa2c05ad0ee3a73089a0e2b79027a *15 Drums.flac
17aae57c72413ce7fb5458eeb74f7ea9 *16 Space.flac
2319a876ae91a7e9bb76acb13b157dcd *17 Uncle John's Band.flac
7f9a4a307e31bab991b895b7f310dcde *18 I Need A Miracle.flac
3480db4895881ad629d4f21a65f71584 *19 Stella Blue.flac
4554b89481f114f0164c9e86f2efea91 *20 Around And Around.flac
bcbb149e60a9b17e72722d75806495d1 *21 Turn On Your Lovelight.flac
a232b08e9966007150965c38787ecfdd *22 Encore Break.flac
00743211d2ce82b4a739639caa89cae6 *23 Brokedown Palace.flac
ffp
01 Tuning.flac:988e513183affa9517d603470277015a
02 Jack Straw.flac:6e2d436ad9149c1341c6347dc199dc3e
03 Franklin's Tower.flac:5f31cc57d915d917ec5db48054a7cfc6
04 CC Rider.flac:f277bc64a4964b1345f2f71d5f61e240
05 Ramble On Rose.flac:ac5fe588032f80bd18787ef76abc99ea
06 Tons Of Steel.flac:616776919f68307d5782a7903b7ad30d
07 Mama Tried.flac:6e64e227445ee8803aa215dd3f54abd7
08 Big River.flac:64209234e2524d62f30e7c077ec475d8
09 Candyman.flac:787e0698d91b7c65170bc38e359ae93e
10 Desolation Row.flac:4c083084615c5015edab00af701517f7
11 Don't Ease Me In.flac:b462743ea33f315ffc73b2d966123280
12 Touch Of Grey.flac:561cce1848b1c92183b0a43286121c12
13 Estimated Prophet.flac:2136dd194f8332b354a1df368fb1fdb0
14 Terrapin Station.flac:4eb4410e3dc060185e108ce55ab9d301
15 Drums.flac:421f000dbf621de35fe41c41ac722055
16 Space.flac:01a70039bc039a4607e9edbfb1830283
17 Uncle John's Band.flac:03898b3e4990f134e6c886277e27a66b
18 I Need A Miracle.flac:420377c0adfbc477e357a7713a775b1a
19 Stella Blue.flac:483dca1842ce37f54b08b941eace5204
20 Around And Around.flac:6b57ba8e24cb33fd4e95ca99c77a7ff8
21 Turn On Your Lovelight.flac:fb6ed64efc04764e969e68feb512acd2
22 Encore Break.flac:352944f5df80911cde2551feafed6ab9
23 Brokedown Palace.flac:f541806ad7865ad6829ff70169f1a0c7

Comments
Add Comment
Other Sources (comments)
FM(AUD):MC> DAT> CD> AIFF>... (0) FM Broadcast (93.3 WMMR,... (1) Recording Info: FM ->... (1) flac16; Source:... (0) flac16; taper: Joe... (0) flac24; source:... (0) flac24; Recording... (0)
Date User Comment